<?xml version="1.0" standalone="no"?>
<!DOCTYPE svg PUBLIC "-//W3C//DTD SVG 1.1//EN" "http://www.w3.org/Graphics/SVG/1.1/DTD/svg11.dtd" >
<svg xmlns="http://www.w3.org/2000/svg" xmlns:xlink="http://www.w3.org/1999/xlink" version="1.1">
<metadata>
Created by FontForge 20170731 at Wed Aug  2 21:01:14 2006
 By Aleksey,,,
Copyright 2000-2003, The Font Bureau, Inc. Designed by Cyrus Highsmith, Tobias Frere-Jones, and Font Bureau. All rights reserved.
</metadata>
<defs>
<font id="BentonSansComp-Book" horiz-adv-x="205" >
  <font-face 
    font-family="BentonSans Comp Book"
    font-weight="400"
    font-stretch="normal"
    units-per-em="1000"
    panose-1="2 0 5 6 4 0 0 2 0 4"
    ascent="800"
    descent="-200"
    x-height="526"
    cap-height="740"
    bbox="-79 -209 920 942"
    underline-thickness="20"
    underline-position="-173"
    unicode-range="U+0020-FB0C"
  />
<missing-glyph horiz-adv-x="780" 
d="M358 0l5 150l-162 -10v40h-41l10 163l-150 -7v66l150 -5l-10 162h41v41l162 -10l-5 150h66l-7 -150l163 10v-41h40l-10 -162l150 5v-66l-150 7l10 -163h-40v-40l-163 10l7 -150h-66zM417 397h154l-8 146l-146 8v-154zM210 397h153v154l-145 -8zM417 190l146 7l8 146h-154
v-153zM363 190v153h-153l7 -146z" />
    <glyph glyph-name="ff" unicode="ff" horiz-adv-x="463" 
d="M81 0v472l-64 1v53h64v95q0 119 120 119h23v-55h-21q-60 0 -60 -63v-96h159v94q0 120 121 120h25v-55h-24q-61 0 -61 -63v-96h81v-54h-81v-472h-61v472h-159v-472h-62z" />
    <glyph glyph-name="fi" unicode="fi" horiz-adv-x="429" 
d="M300 632v81h64v-81h-64zM81 0v472h-64v54h64v95q0 119 119 119h24v-55h-22q-59 0 -59 -63v-96h77v-54h-77v-472h-62zM301 0v526h62v-526h-62z" />
    <glyph glyph-name="ffi" unicode="ffi" horiz-adv-x="650" 
d="M521 632v81h64v-81h-64zM81 0v472h-64v54h64v95q0 119 120 119h23v-55h-21q-60 0 -60 -63v-96h159v94q0 62 32 91t87 29h23v-55h-22q-59 0 -59 -63v-96h77v-54h-77v-472h-61v472h-159v-472h-62zM522 0v526h62v-526h-62z" />
    <glyph glyph-name="ffl" unicode="ffl" horiz-adv-x="650" 
d="M522 0v740h62v-740h-62zM81 0v472h-64v54h64v95q0 119 120 119h23v-55h-21q-60 0 -60 -63v-96h159v94q0 62 32 91t87 29h23v-55h-22q-59 0 -59 -63v-96h77v-54h-77v-472h-61v472h-159v-472h-62z" />
    <glyph glyph-name="fj" unicode="fj" horiz-adv-x="429" 
d="M300 632v81h64v-81h-64zM81 0v472h-64v54h64v95q0 119 119 119h24v-55h-22q-59 0 -59 -63v-96h77v-54h-77v-472h-62zM272 -200q-24 0 -26 1v52q3 -1 21 -1q19 0 26.5 12.5t7.5 41.5v620h62v-615q0 -62 -21.5 -86.5t-69.5 -24.5z" />
    <glyph glyph-name=".notdef" horiz-adv-x="780" 
d="M358 0l5 150l-162 -10v40h-41l10 163l-150 -7v66l150 -5l-10 162h41v41l162 -10l-5 150h66l-7 -150l163 10v-41h40l-10 -162l150 5v-66l-150 7l10 -163h-40v-40l-163 10l7 -150h-66zM417 397h154l-8 146l-146 8v-154zM210 397h153v154l-145 -8zM417 190l146 7l8 146h-154
v-153zM363 190v153h-153l7 -146z" />
    <glyph glyph-name=".null" horiz-adv-x="0" 
 />
    <glyph glyph-name="nonmarkingreturn" horiz-adv-x="333" 
 />
    <glyph glyph-name="space" unicode=" " horiz-adv-x="161" 
 />
    <glyph glyph-name="exclam" unicode="!" horiz-adv-x="233" 
d="M95 197l-14 543h72l-14 -543h-44zM80 0v89h74v-89h-74z" />
    <glyph glyph-name="quotedbl" unicode="&#x22;" horiz-adv-x="311" 
d="M204 490l-11 199v51h61v-51l-11 -199h-39zM70 490l-13 199v51h62v-51l-12 -199h-37z" />
    <glyph glyph-name="numbersign" unicode="#" horiz-adv-x="497" 
d="M79 0l33 221h-82v53h90l28 192h-87v53h96l32 221h57l-33 -221h115l32 221h57l-32 -221h82v-53h-90l-28 -192h87v-53h-95l-32 -221h-58l33 221h-115l-32 -221h-58zM177 273h115l29 194h-117z" />
    <glyph glyph-name="dollar" unicode="$" horiz-adv-x="462" 
d="M201 0q-57 8 -93.5 49.5t-64.5 125.5l56 17q39 -117 103 -134v304q-33 25 -52 41.5t-42 44t-34 60t-11 72.5q0 69 38 113t100 49v77h52v-79q53 -9 84 -46.5t54 -107.5l-55 -17q-33 94 -85 111v-282q31 -23 45 -34t39 -35.5t36.5 -45t21.5 -51t10 -65.5q0 -74 -40 -118
t-110 -50v-92h-52v93zM202 685q-37 -4 -57.5 -31.5t-20.5 -69.5q0 -80 78 -147v248zM251 54q43 5 66.5 33t23.5 76q0 89 -90 161v-270z" />
    <glyph glyph-name="percent" unicode="%" horiz-adv-x="681" 
d="M161 313q-118 0 -118 216q0 219 119 219q116 0 116 -216q0 -219 -117 -219zM157 0l311 740h56l-310 -740h-57zM521 -8q-118 0 -118 215q0 220 118 220t118 -216q0 -219 -118 -219zM161 364q60 0 60 166q0 167 -61 167q-60 0 -60 -165q0 -168 61 -168zM521 43q61 0 61 166
t-62 166q-60 0 -60 -164q0 -168 61 -168z" />
    <glyph glyph-name="ampersand" unicode="&#x26;" horiz-adv-x="510" 
d="M222 396q2 -5 48 -91q53 -91 87 -137q34 81 43 208h58q-17 -164 -62 -255q59 -64 102 -65v-60q-68 3 -135 73q-61 -77 -160 -77q-83 0 -129 45.5t-46 130.5q0 50 20 95.5t42 72t63 66.5q-43 103 -43 185q0 76 32.5 119.5t92.5 43.5q58 0 84 -36.5t26 -95.5q0 -35 -9 -65
t-31 -60.5t-36 -46.5t-47 -50zM200 448q44 46 66 82.5t22 83.5q0 82 -54 82q-32 0 -48 -27.5t-16 -73.5q0 -59 30 -147zM325 111q-34 43 -103 160q-39 65 -46 79q-42 -46 -64 -86t-22 -93q0 -57 28.5 -91.5t87.5 -34.5q72 0 119 66z" />
    <glyph glyph-name="quotesingle" unicode="'" horiz-adv-x="176" 
d="M70 490l-13 199v51h63v-51l-12 -199h-38z" />
    <glyph glyph-name="parenleft" unicode="(" horiz-adv-x="294" 
d="M220 -204q-176 210 -176 475q0 264 176 474l42 -31q-156 -198 -156 -443q0 -247 156 -444z" />
    <glyph glyph-name="parenright" unicode=")" horiz-adv-x="294" 
d="M75 -204l-43 31q156 200 156 444q0 124 -42 238.5t-114 204.5l43 31q176 -210 176 -474q0 -263 -176 -475z" />
    <glyph glyph-name="asterisk" unicode="*" horiz-adv-x="413" 
d="M143 394l-48 30l89 130l-153 -13v54l154 -13l-90 133l48 29l64 -147l64 147l47 -29l-89 -133l153 13v-54l-153 13l89 -130l-47 -30l-64 147z" />
    <glyph glyph-name="plus" unicode="+" horiz-adv-x="451" 
d="M198 90v208h-154v56h154v206h55v-206h154v-56h-154v-208h-55z" />
    <glyph glyph-name="comma" unicode="," 
d="M73 -101l23 101h-32v91h76v-84l-38 -108h-29z" />
    <glyph glyph-name="hyphen" unicode="-" horiz-adv-x="257" 
d="M42 287v56h173v-56h-173z" />
    <glyph glyph-name="period" unicode="." 
d="M64 0v91h76v-91h-76z" />
    <glyph glyph-name="slash" unicode="/" horiz-adv-x="391" 
d="M13 0l303 740h62l-303 -740h-62z" />
    <glyph glyph-name="zero" unicode="0" horiz-adv-x="459" 
d="M229 -8q-98 0 -144.5 91t-46.5 287t46.5 287t144.5 91t144.5 -90.5t46.5 -287.5t-46.5 -287.5t-144.5 -90.5zM229 47q65 0 96.5 74t31.5 249q0 173 -32 247.5t-96 74.5t-96 -74t-32 -248q0 -173 32 -248t96 -75z" />
    <glyph glyph-name="one" unicode="1" horiz-adv-x="319" 
d="M42 0v57h99v613q-47 -34 -97 -34v56q66 3 99 48h60v-683h88v-57h-249z" />
    <glyph glyph-name="two" unicode="2" horiz-adv-x="410" 
d="M33 0v16q0 62 15 114t38.5 88t52.5 67t58 59.5t52.5 58t38.5 69t15 85.5q0 135 -95 135q-43 0 -68 -29t-41 -98l-57 10q35 173 169 173q73 0 113.5 -49.5t40.5 -138.5q0 -68 -27.5 -124.5t-66.5 -96.5t-78 -79.5t-66.5 -91t-27.5 -111.5h267v-57h-333z" />
    <glyph glyph-name="three" unicode="3" horiz-adv-x="418" 
d="M201 -10q-70 0 -113 38.5t-68 116.5l56 15q36 -115 125 -115q56 0 84 42t28 115q0 88 -33.5 126t-123.5 38h-21v54h26q81 0 111 33t30 109q0 132 -99 132q-72 0 -106 -92l-55 19q23 59 65 94t99 35q158 0 158 -184q0 -141 -108 -170q61 -18 89.5 -63.5t28.5 -131.5
q0 -94 -44.5 -152.5t-128.5 -58.5z" />
    <glyph glyph-name="four" unicode="4" horiz-adv-x="430" 
d="M265 0v184h-243v46l236 510h68v-500h87v-56h-87v-184h-61zM86 240h180v394h-1z" />
    <glyph glyph-name="five" unicode="5" horiz-adv-x="414" 
d="M202 -10q-125 0 -173 157l56 16q36 -118 116 -118q61 0 89 56.5t28 143.5q0 189 -102 189q-72 0 -110 -91l-52 13l20 384h278l-1 -58h-224l-14 -257q35 65 115 65q71 0 111.5 -59t40.5 -183q0 -126 -47 -192t-131 -66z" />
    <glyph glyph-name="six" unicode="6" horiz-adv-x="430" 
d="M223 -9q-185 0 -185 366q0 71 5 127t18.5 107.5t35 85.5t56 54t80.5 20q99 0 143 -112l-53 -22q-32 77 -94 77q-71 0 -99.5 -80t-29.5 -226q57 75 138 75q160 0 160 -230q0 -110 -44.5 -176t-130.5 -66zM224 47q112 0 112 184q0 84 -24 130t-83 46q-76 0 -128 -83
q4 -139 33 -208t90 -69z" />
    <glyph glyph-name="seven" unicode="7" horiz-adv-x="389" 
d="M78 0l220 682h-262v58h325v-54l-220 -686h-63z" />
    <glyph glyph-name="eight" unicode="8" horiz-adv-x="430" 
d="M214 -13q-92 0 -139 51.5t-47 129.5q0 75 37.5 125t104.5 98q-58 44 -88 85.5t-30 105.5q0 74 42 123t120 49q82 0 122.5 -48.5t40.5 -123.5q0 -104 -116 -190q34 -25 52.5 -41t42.5 -43.5t34.5 -61t10.5 -75.5q0 -80 -47.5 -132t-139.5 -52zM220 424q46 35 71.5 71.5
t25.5 85.5q0 51 -24.5 84.5t-77.5 33.5q-51 0 -76 -32.5t-25 -82.5q0 -51 27.5 -87.5t78.5 -72.5zM214 41q58 0 91 35.5t33 98.5q0 41 -20 76.5t-43 56t-64 50.5q-59 -45 -89.5 -86t-30.5 -101q0 -59 33 -94.5t90 -35.5z" />
    <glyph glyph-name="nine" unicode="9" horiz-adv-x="430" 
d="M197 -10q-97 0 -144 111l53 22q36 -78 95 -78q37 0 62.5 22.5t39.5 65.5t20.5 96t6.5 123q-58 -75 -138 -75q-161 0 -161 230q0 110 44.5 176t130.5 66q185 0 185 -366q0 -90 -8.5 -157t-29.5 -122.5t-60 -84.5t-96 -29zM200 333q77 0 129 83q-8 277 -123 277
q-113 0 -113 -184q0 -176 107 -176z" />
    <glyph glyph-name="colon" unicode=":" horiz-adv-x="206" 
d="M65 435v91h75v-91h-75zM65 0v91h75v-91h-75z" />
    <glyph glyph-name="semicolon" unicode=";" horiz-adv-x="206" 
d="M65 435v91h75v-91h-75zM74 -101l22 101h-31v91h75v-84l-38 -108h-28z" />
    <glyph glyph-name="less" unicode="&#x3c;" horiz-adv-x="451" 
d="M397 86l-355 213v50l355 213v-60l-298 -178l298 -178v-60z" />
    <glyph glyph-name="equal" unicode="=" horiz-adv-x="451" 
d="M43 410v54h364v-54h-364zM43 186v54h364v-54h-364z" />
    <glyph glyph-name="greater" unicode="&#x3e;" horiz-adv-x="451" 
d="M54 86v60l298 178l-298 178v60l355 -213v-50z" />
    <glyph glyph-name="question" unicode="?" horiz-adv-x="378" 
d="M144 196q-1 90 12 126.5t60 99.5q2 4 4 6t4.5 5.5t4.5 6.5q51 69 51 140q0 51 -22.5 81.5t-69.5 30.5q-39 0 -63 -27t-45 -78l-54 18q52 143 166 143q75 0 113 -45.5t38 -119.5q0 -50 -16.5 -88t-49.5 -80q-54 -70 -65 -103.5t-11 -115.5h-57zM134 0v89h75v-89h-75z" />
    <glyph glyph-name="at" unicode="@" horiz-adv-x="615" 
d="M308 -14q-127 0 -201 99t-74 285q0 182 75 283t200 101q124 0 199 -99.5t75 -274.5q0 -223 -123 -223q-78 0 -93 75q-48 -75 -107 -75q-52 0 -78 43.5t-26 122.5q2 123 39.5 195.5t104.5 72.5q57 0 85 -55l5 46h51l-30 -293q-8 -92 52 -92q78 0 78 183q0 158 -63 247.5
t-169 89.5q-107 0 -169.5 -89.5t-62.5 -257.5q0 -167 62.5 -256.5t169.5 -89.5q81 0 148 39l18 -31q-74 -46 -166 -46zM267 205q43 0 90 62l23 219q-31 56 -78 56q-40 0 -66 -57t-27 -158q1 -122 58 -122z" />
    <glyph glyph-name="A" unicode="A" horiz-adv-x="459" 
d="M135 231l-52 -231h-57l173 743h60l174 -743h-62l-52 231h-184zM307 284l-38 169q-30 136 -41 207h-2q-10 -64 -41 -206l-38 -170h160z" />
    <glyph glyph-name="B" unicode="B" horiz-adv-x="463" 
d="M66 0v740h138q107 0 155 -45t48 -142q0 -77 -29 -116t-79 -55v-2q126 -24 126 -180q0 -101 -50 -150.5t-156 -49.5h-153zM129 407h72q75 0 109 34t34 106q0 73 -30.5 104.5t-110.5 31.5h-74v-276zM129 56h92q77 0 108.5 35.5t31.5 111.5q0 77 -38 113.5t-118 36.5h-76
v-297z" />
    <glyph glyph-name="C" unicode="C" horiz-adv-x="465" 
d="M248 -8q-102 0 -154 91.5t-52 287.5q0 377 205 377q83 0 125 -60.5t56 -171.5l-62 -9q-24 182 -119 182q-142 0 -142 -317q0 -322 143 -322q54 0 84 46t43 143l62 -7q-34 -240 -189 -240z" />
    <glyph glyph-name="D" unicode="D" horiz-adv-x="477" 
d="M66 0v740h122q130 0 189 -86t59 -284q0 -196 -60 -283t-188 -87h-122zM129 57h68q94 0 134.5 75.5t40.5 237.5q0 161 -41 236.5t-135 75.5h-67v-625z" />
    <glyph glyph-name="E" unicode="E" horiz-adv-x="403" 
d="M66 0v740h292v-58h-229v-261h164v-57h-164v-307h243v-57h-306z" />
    <glyph glyph-name="F" unicode="F" horiz-adv-x="383" 
d="M66 0v740h292v-58h-229v-262h165v-58h-165v-362h-63z" />
    <glyph glyph-name="G" unicode="G" horiz-adv-x="487" 
d="M244 -8q-102 0 -152 92t-50 287q0 379 205 379q78 0 121 -58t59 -175l-60 -9q-12 92 -40.5 137.5t-78.5 45.5q-143 0 -143 -319q0 -322 144 -322q65 0 95.5 58.5t30.5 180.5h-117v56h173v-345h-52v94h-2q-14 -46 -48 -74t-85 -28z" />
    <glyph glyph-name="H" unicode="H" horiz-adv-x="495" 
d="M66 0v740h63v-319h237v319h63v-740h-63v363h-237v-363h-63z" />
    <glyph glyph-name="I" unicode="I" 
d="M71 0v740h63v-740h-63z" />
    <glyph glyph-name="J" unicode="J" horiz-adv-x="348" 
d="M146 -13q-82 0 -133 53l37 44q43 -41 92 -41q81 0 81 99v598h64v-592q0 -83 -37.5 -122t-103.5 -39z" />
    <glyph glyph-name="K" unicode="K" horiz-adv-x="450" 
d="M66 0v740h63v-399q13 35 77 148l138 251h64l-162 -292l188 -448h-66l-163 385l-76 -138v-247h-63z" />
    <glyph glyph-name="L" unicode="L" horiz-adv-x="384" 
d="M66 0v740h63v-683h229v-57h-292z" />
    <glyph glyph-name="M" unicode="M" horiz-adv-x="595" 
d="M66 0v740h81l149 -643h2l148 643h83v-740h-59v635h-2q-4 -33 -52 -231l-93 -404h-57l-95 413q-38 143 -49 221h-2v-634h-54z" />
    <glyph glyph-name="N" unicode="N" horiz-adv-x="496" 
d="M66 0v740h74l179 -454q36 -90 55 -146h1v600h55v-740h-55l-201 504q-36 87 -52 137h-2v-641h-54z" />
    <glyph glyph-name="O" unicode="O" horiz-adv-x="500" 
d="M251 -8q-99 0 -154 94t-55 284t55 284t154 94q98 0 153.5 -94.5t55.5 -283.5t-55.5 -283.5t-153.5 -94.5zM251 50q143 0 143 320q0 319 -143 319q-72 0 -109 -82t-37 -237t37 -237.5t109 -82.5z" />
    <glyph glyph-name="P" unicode="P" horiz-adv-x="437" 
d="M66 0v740h133q105 0 158 -48t53 -158q0 -119 -55 -166.5t-161 -47.5h-65v-320h-63zM129 376h72q78 0 111.5 36.5t33.5 119.5q0 80 -33.5 115t-112.5 35h-71v-306z" />
    <glyph glyph-name="Q" unicode="Q" horiz-adv-x="500" 
d="M381 -186q-88 0 -125 45.5t-37 134.5q-177 28 -177 376q0 190 55 284t154 94q98 0 153.5 -94.5t55.5 -283.5q0 -349 -181 -376q2 -70 27.5 -96t81.5 -26h34v-58h-41zM251 46q71 0 107 84t36 240q0 319 -143 319q-72 0 -109 -82t-37 -237q0 -156 37 -240t109 -84z" />
    <glyph glyph-name="R" unicode="R" horiz-adv-x="459" 
d="M292 337l125 -337h-65l-121 324q-9 -1 -29 -1h-73v-323h-63v740h130q109 0 161.5 -49.5t52.5 -155.5q0 -156 -118 -198zM129 378h72q80 0 112.5 35.5t32.5 119.5q0 80 -33 114.5t-117 34.5h-67v-304z" />
    <glyph glyph-name="S" unicode="S" horiz-adv-x="435" 
d="M222 -10q-79 0 -124 47t-72 142l59 15q20 -74 51.5 -110.5t86.5 -36.5q54 0 82.5 30.5t28.5 82.5q0 43 -29 85t-70 78.5t-82.5 74.5t-70.5 88t-29 104q0 73 44.5 116.5t116.5 43.5q70 0 110.5 -43.5t63.5 -126.5l-58 -16q-19 66 -46 97t-72 31t-70.5 -25.5t-25.5 -72.5
t29 -91t70 -80t82.5 -72.5t70.5 -85.5t29 -103q0 -78 -48.5 -125t-126.5 -47z" />
    <glyph glyph-name="T" unicode="T" horiz-adv-x="413" 
d="M174 0v682h-151v58h365v-58h-149v-682h-65z" />
    <glyph glyph-name="U" unicode="U" horiz-adv-x="484" 
d="M243 -8q-99 0 -140 63.5t-41 178.5v506h63v-494q0 -98 25.5 -147.5t93.5 -49.5q67 0 92 48.5t25 146.5v496h61v-503q0 -117 -40.5 -181t-138.5 -64z" />
    <glyph glyph-name="V" unicode="V" horiz-adv-x="448" 
d="M194 -3l-169 743h62l98 -448q31 -146 40 -203h2q11 68 40 202l99 449h59l-171 -743h-60z" />
    <glyph glyph-name="W" unicode="W" horiz-adv-x="650" 
d="M159 0l-131 740h61l77 -476q13 -77 22 -156h3q5 49 22 156l78 476h63l79 -475q16 -93 23 -157h2q6 51 22 154l78 478h56l-132 -740h-55l-105 644h-2l-106 -644h-55z" />
    <glyph glyph-name="X" unicode="X" horiz-adv-x="441" 
d="M21 0l167 398l-143 342h64l115 -280l112 280h60l-143 -343l166 -397h-64l-138 333l-136 -333h-60z" />
    <glyph glyph-name="Y" unicode="Y" horiz-adv-x="411" 
d="M174 0v290l-160 450h64l128 -377h3l128 377h61l-161 -450v-290h-63z" />
    <glyph glyph-name="Z" unicode="Z" horiz-adv-x="417" 
d="M29 0v50l283 632h-262v58h333v-51l-284 -632h284v-57h-354z" />
    <glyph glyph-name="bracketleft" unicode="[" horiz-adv-x="272" 
d="M62 -200v940h178v-52h-116v-836h116v-52h-178z" />
    <glyph glyph-name="backslash" unicode="\" horiz-adv-x="391" 
d="M316 0l-303 740h62l303 -740h-62z" />
    <glyph glyph-name="bracketright" unicode="]" horiz-adv-x="272" 
d="M33 -200v52h116v836h-116v52h178v-940h-178z" />
    <glyph glyph-name="asciicircum" unicode="^" horiz-adv-x="362" 
d="M70 578l91 157h38l90 -157h-36l-74 87l-71 -87h-38z" />
    <glyph glyph-name="underscore" unicode="_" horiz-adv-x="355" 
d="M-3 -123v53h361v-53h-361z" />
    <glyph glyph-name="grave" unicode="`" horiz-adv-x="358" 
d="M184 583l-98 152h73l66 -152h-41z" />
    <glyph glyph-name="a" unicode="a" horiz-adv-x="383" 
d="M135 -5q-49 0 -75.5 34.5t-26.5 94.5q0 74 59 134t176 92v43q0 87 -65 87q-60 0 -119 -73l-40 38q71 89 165 89q64 0 91.5 -35t27.5 -108v-261q0 -93 11 -130h-62q-9 38 -9 65q-57 -70 -133 -70zM156 50q55 0 112 67v180q-92 -24 -134 -70t-42 -98q0 -79 64 -79z" />
    <glyph glyph-name="b" unicode="b" horiz-adv-x="412" 
d="M230 -5q-66 0 -113 72v-67h-61v740h61v-276q49 70 115 70q144 0 144 -269q0 -270 -146 -270zM219 50q95 0 95 214t-96 214q-45 0 -101 -69v-288q51 -71 102 -71z" />
    <glyph glyph-name="c" unicode="c" horiz-adv-x="368" 
d="M195 -8q-75 0 -117.5 69.5t-42.5 201.5q0 135 43 203t120 68q62 0 94 -39.5t49 -116.5l-57 -13q-14 59 -32.5 86.5t-55.5 27.5q-46 0 -72.5 -55.5t-26.5 -159.5q0 -217 101 -217q36 0 55.5 27t33.5 88l55 -11q-18 -81 -53 -120t-94 -39z" />
    <glyph glyph-name="d" unicode="d" horiz-adv-x="412" 
d="M181 -5q-145 0 -145 269q0 270 147 270q66 0 113 -70v276h60v-610q0 -94 12 -130h-64q-8 36 -8 65q-51 -70 -115 -70zM194 50q46 0 102 68v289q-53 71 -103 71q-95 0 -95 -213q0 -215 96 -215z" />
    <glyph glyph-name="e" unicode="e" horiz-adv-x="384" 
d="M196 -8q-76 0 -118.5 68.5t-42.5 202.5q0 135 43.5 203t119.5 68q78 0 114.5 -74.5t36.5 -193.5v-15h-253q0 -204 103 -204q39 0 61 25t36 76l52 -14q-37 -142 -152 -142zM96 302h193q-2 80 -24.5 129t-67.5 49q-90 0 -101 -178z" />
    <glyph glyph-name="f" unicode="f" horiz-adv-x="242" 
d="M81 0v472h-64v54h64v95q0 119 121 119h25v-55h-23q-61 0 -61 -63v-96h80v-54h-80v-472h-62z" />
    <glyph glyph-name="g" unicode="g" horiz-adv-x="401" 
d="M295 482q38 38 84 48v-66q-35 0 -64 -14q21 -47 21 -105q0 -88 -41 -137.5t-108 -49.5q-29 0 -56 11q-25 -20 -25 -44q0 -17 10 -25.5t37 -12.5l83 -14q66 -11 97.5 -42t31.5 -88q0 -66 -50.5 -105t-134.5 -39q-80 0 -122.5 34.5t-42.5 95.5q0 81 73 121q-37 20 -37 65
q0 41 45 76q-58 52 -58 154q0 86 41.5 137.5t107.5 51.5q68 0 108 -52zM187 210q43 0 66 35.5t23 99.5q0 136 -89 136q-43 0 -65.5 -35.5t-22.5 -100.5q0 -64 23 -99.5t65 -35.5zM133 36q-58 -33 -58 -99q0 -88 110 -88q59 0 90.5 24t31.5 65q0 35 -20 55t-70 28z" />
    <glyph glyph-name="h" unicode="h" horiz-adv-x="410" 
d="M56 0v740h61v-281q25 29 62.5 52t75.5 23q53 0 77.5 -31.5t24.5 -102.5v-400h-61v389q0 45 -13 66.5t-46 21.5q-53 0 -120 -71v-406h-61z" />
    <glyph glyph-name="i" unicode="i" horiz-adv-x="184" 
d="M60 632v81h64v-81h-64zM61 0v526h62v-526h-62z" />
    <glyph glyph-name="j" unicode="j" horiz-adv-x="184" 
d="M60 632v81h64v-81h-64zM32 -200q-24 0 -26 1v52q3 -1 21 -1q19 0 26.5 12.5t7.5 41.5v620h62v-615q0 -62 -21.5 -86.5t-69.5 -24.5z" />
    <glyph glyph-name="k" unicode="k" horiz-adv-x="372" 
d="M56 0v740h60v-503q8 19 61 116l97 173h60l-113 -196l131 -330h-62l-107 269l-67 -116v-153h-60z" />
    <glyph glyph-name="l" unicode="l" horiz-adv-x="184" 
d="M61 0v740h62v-740h-62z" />
    <glyph glyph-name="m" unicode="m" horiz-adv-x="634" 
d="M56 0v526h61v-67q66 75 132 75q79 0 96 -77q65 77 136 77q52 0 76.5 -32t24.5 -103v-399h-62v389q0 46 -12.5 67t-44.5 21q-48 0 -114 -71v-406h-61v389q0 47 -12 68.5t-45 21.5q-45 0 -114 -73v-406h-61z" />
    <glyph glyph-name="n" unicode="n" horiz-adv-x="410" 
d="M56 0v526h61v-67q25 29 62.5 52t75.5 23q53 0 77.5 -31.5t24.5 -102.5v-400h-61v389q0 45 -13 66.5t-46 21.5q-53 0 -120 -71v-406h-61z" />
    <glyph glyph-name="o" unicode="o" horiz-adv-x="400" 
d="M201 -8q-79 0 -122.5 69t-43.5 202t43 202t123 69q78 0 121 -69t43 -202t-43 -202t-121 -69zM201 46q102 0 102 218q0 215 -102 215q-104 0 -104 -215q0 -218 104 -218z" />
    <glyph glyph-name="p" unicode="p" horiz-adv-x="412" 
d="M56 -200v726h61v-62q49 70 115 70q144 0 144 -269q0 -270 -146 -270q-66 0 -113 70v-265h-61zM219 50q95 0 95 214t-96 214q-45 0 -101 -69v-288q51 -71 102 -71z" />
    <glyph glyph-name="q" unicode="q" horiz-adv-x="412" 
d="M295 -200v266q-50 -71 -114 -71q-145 0 -145 269q0 270 147 270q65 0 112 -70v62h61v-726h-61zM194 50q29 0 52 18t49 50v289q-53 71 -102 71q-95 0 -95 -213q0 -215 96 -215z" />
    <glyph glyph-name="r" unicode="r" horiz-adv-x="282" 
d="M56 0v526h61v-86h2q47 94 135 94h11l-5 -60h-14q-40 0 -75.5 -30.5t-53.5 -75.5v-368h-61z" />
    <glyph glyph-name="s" unicode="s" horiz-adv-x="353" 
d="M176 -11q-110 0 -160 125l54 22q35 -93 105 -93q43 0 64.5 20.5t21.5 55.5q0 28 -16.5 52.5t-40.5 41t-53 37.5t-53 41t-40.5 51.5t-16.5 69.5q0 56 39.5 90t93.5 34q104 0 144 -119l-55 -18q-26 83 -89 83q-33 0 -53 -19t-20 -49q0 -33 23 -60.5t55.5 -49.5t64.5 -45.5
t55 -59t23 -79.5q0 -57 -39.5 -94t-106.5 -37z" />
    <glyph glyph-name="t" unicode="t" horiz-adv-x="268" 
d="M190 -4q-58 0 -84 24.5t-26 88.5v363h-64v54h64v190h61v-190h96v-54h-96v-350q0 -40 12.5 -56.5t46.5 -16.5q22 0 38 7v-54q-24 -6 -48 -6z" />
    <glyph glyph-name="u" unicode="u" horiz-adv-x="408" 
d="M155 -7q-53 0 -77.5 32t-24.5 103v398h61v-387q0 -46 13 -67.5t46 -21.5q51 0 118 71v405h61v-526h-61v69q-63 -76 -136 -76z" />
    <glyph glyph-name="v" unicode="v" horiz-adv-x="360" 
d="M148 -3l-128 529h59l77 -334q17 -76 25 -128h2q10 58 25 127l76 335h56l-128 -529h-64z" />
    <glyph glyph-name="w" unicode="w" horiz-adv-x="524" 
d="M131 0l-111 526h57l61 -304q9 -44 20 -122h2q18 116 20 126l58 300h54l58 -301q4 -23 10 -64.5t9 -62.5h3q5 37 20 123l61 305h52l-111 -526h-51l-80 423h-2l-80 -423h-50z" />
    <glyph glyph-name="x" unicode="x" horiz-adv-x="360" 
d="M19 0l129 275l-117 251h63l89 -198l87 198h59l-118 -252l128 -274h-62l-100 220l-98 -220h-60z" />
    <glyph glyph-name="y" unicode="y" horiz-adv-x="371" 
d="M66 -200q-37 0 -62 10l14 51q17 -7 48 -7q29 0 44.5 22t29.5 75l16 59l-136 516h60l76 -303q15 -56 29 -134h2q16 83 30 133l77 304h58l-156 -585q-20 -78 -47.5 -109.5t-82.5 -31.5z" />
    <glyph glyph-name="z" unicode="z" horiz-adv-x="344" 
d="M28 0v44l209 428h-190v54h259v-43l-210 -430h218v-53h-286z" />
    <glyph glyph-name="braceleft" unicode="{" horiz-adv-x="268" 
d="M209 -200q-57 0 -82 33.5t-25 100.5v195q0 70 -17.5 93.5t-60.5 23.5v48q43 0 60.5 24t17.5 93v195q0 67 25.5 100.5t83.5 33.5h39v-52h-31q-55 0 -55 -74v-203q0 -68 -15.5 -96.5t-48.5 -43.5v-2q33 -15 48.5 -43.5t15.5 -96.5v-205q0 -72 55 -72h31v-52h-41z" />
    <glyph glyph-name="bar" unicode="|" horiz-adv-x="255" 
d="M98 -200v940h59v-940h-59z" />
    <glyph glyph-name="braceright" unicode="}" horiz-adv-x="268" 
d="M18 -200v50h30q55 0 55 74v205q0 68 15.5 96.5t49.5 43.5v2q-34 15 -49.5 43.5t-15.5 96.5v203q0 75 -55 75h-30v51h40q59 0 83.5 -33t24.5 -101v-195q0 -69 17.5 -93t60.5 -24v-48q-43 0 -60.5 -23.5t-17.5 -93.5v-195q0 -67 -25.5 -100.5t-81.5 -33.5h-41z" />
    <glyph glyph-name="asciitilde" unicode="~" horiz-adv-x="360" 
d="M236 414q-25 0 -62.5 28t-49.5 28q-15 0 -21 -12t-6 -42h-42q0 110 69 110q24 0 61 -28t50 -28q14 0 20.5 11t6.5 43h41q0 -110 -67 -110z" />
    <glyph glyph-name="nbspace" unicode="&#xa0;" horiz-adv-x="80" 
 />
    <glyph glyph-name="exclamdown" unicode="&#xa1;" horiz-adv-x="233" 
d="M79 651v89h75v-89h-75zM81 0l13 543h44l14 -543h-71z" />
    <glyph glyph-name="cent" unicode="&#xa2;" horiz-adv-x="368" 
d="M167 -8q-62 12 -97 82t-35 189q0 120 35 189t97 82v104h51v-102q52 -6 79 -44.5t44 -110.5l-57 -13q-12 51 -27 78t-41 34v-435q27 6 42.5 33t28.5 81l55 -11q-16 -73 -46 -111.5t-78 -45.5v-120h-51v121zM169 477q-34 -15 -53 -70.5t-19 -142.5q0 -184 72 -214v427z" />
    <glyph glyph-name="sterling" unicode="&#xa3;" horiz-adv-x="433" 
d="M154 367h-95v50h77q-43 114 -43 167q0 79 38.5 122.5t104.5 43.5q134 0 141 -187l-59 -4q-3 65 -22 100.5t-62 35.5q-37 0 -58.5 -27t-21.5 -82q0 -48 44 -169h125v-50h-108q32 -94 32 -164q0 -62 -16 -110q42 -47 72 -47q31 0 45 34t14 109h56q0 -97 -26.5 -147
t-88.5 -50q-48 0 -94 55q-37 -55 -105 -55q-42 0 -69.5 25.5t-27.5 68.5q0 46 26 74t71 28q40 0 83 -43q3 26 3 57q0 59 -36 165zM174 91q-40 49 -70 49q-20 0 -32 -13.5t-12 -38.5q0 -22 13 -35t32 -13q48 0 69 51z" />
    <glyph glyph-name="currency" unicode="&#xa4;" horiz-adv-x="468" 
d="M259 -8q-79 0 -126 65.5t-58 218.5h-68v51h65q-1 15 -1 45t1 44h-65v51h68q22 281 182 281q69 0 109 -47t57 -146l-58 -10q-14 73 -37.5 109t-69.5 36q-105 0 -120 -223h167v-51h-169q-1 -13 -1 -42q0 -32 1 -47h169v-51h-167q9 -123 39 -175t82 -52q53 0 77.5 37.5
t37.5 117.5l57 -8q-8 -47 -19 -81t-30.5 -63.5t-50 -44.5t-72.5 -15z" />
    <glyph glyph-name="yen" unicode="&#xa5;" horiz-adv-x="413" 
d="M174 0v118h-130v51h130v89h-130v51h125l-154 431h64l128 -368h2l128 368h61l-155 -431h125v-51h-130v-89h130v-51h-130v-118h-64z" />
    <glyph glyph-name="brokenbar" unicode="&#xa6;" horiz-adv-x="255" 
d="M98 331v409h59v-409h-59zM98 -200v409h59v-409h-59z" />
    <glyph glyph-name="section" unicode="&#xa7;" horiz-adv-x="388" 
d="M131 455q-67 67 -67 145q0 69 38 111.5t100 42.5q71 0 103 -43t44 -127l-58 -11q-10 64 -29.5 94.5t-60.5 30.5q-36 0 -55.5 -26t-19.5 -68q0 -44 25 -77t80 -78q32 -28 43 -37.5t33 -32t29.5 -38t15 -39t7.5 -49.5q0 -49 -28.5 -92t-73.5 -71q65 -67 65 -145
q0 -70 -36.5 -112t-99.5 -42q-69 0 -101 43.5t-44 126.5l58 12q10 -64 29.5 -95t58.5 -31q36 0 54.5 25.5t18.5 68.5q0 44 -24 77t-76 77q-40 34 -54 46.5t-37.5 39.5t-31.5 52.5t-8 58.5q0 49 28.5 92t73.5 71zM216 127q82 52 82 122q0 30 -14.5 56.5t-32.5 43.5t-58 51
q-3 2 -10.5 8.5t-10.5 9.5q-81 -49 -81 -122q0 -30 14.5 -56t32 -43.5t57.5 -52.5q9 -7 21 -17z" />
    <glyph glyph-name="dieresis" unicode="&#xa8;" horiz-adv-x="360" 
d="M210 582v77h65v-77h-65zM84 582v77h65v-77h-65z" />
    <glyph glyph-name="copyright" unicode="&#xa9;" horiz-adv-x="555" 
d="M278 -14q-109 0 -178.5 111t-69.5 273t70 273t178 111q107 0 177 -111t70 -273t-70 -273t-177 -111zM278 23q90 0 148.5 100.5t58.5 246.5q0 145 -58.5 246t-148.5 101t-149.5 -101t-59.5 -246t59.5 -246t149.5 -101zM278 160q-118 0 -118 216q0 217 118 217
q87 0 104 -135l-44 -5q-13 96 -61 96q-72 0 -72 -172q0 -173 73 -173q28 0 43 24.5t22 77.5l43 -6q-19 -140 -108 -140z" />
    <glyph glyph-name="ordfeminine" unicode="&#xaa;" horiz-adv-x="290" 
d="M108 365q-36 0 -55.5 25t-19.5 68q0 56 41 98.5t124 63.5v31q0 58 -41 58q-45 0 -76 -53l-39 19q40 78 117 78q89 0 89 -103v-184q0 -64 9 -94l-52 1q-5 24 -6 39q-42 -47 -91 -47zM122 409q36 0 76 46v123q-115 -32 -115 -117q0 -52 39 -52z" />
    <glyph glyph-name="guillemotleft" unicode="&#xab;" horiz-adv-x="351" 
d="M264 0l-94 263l94 263h60l-93 -263l93 -263h-60zM122 0l-93 263l93 263h60l-92 -263l92 -263h-60z" />
    <glyph glyph-name="registered" unicode="&#xae;" horiz-adv-x="555" 
d="M278 -14q-109 0 -178.5 111t-69.5 273t70 273t178 111q107 0 177 -111t70 -273t-70 -273t-177 -111zM278 22q90 0 149 101t59 247t-59 247t-149 101t-149.5 -101.5t-59.5 -246.5t59.5 -246.5t149.5 -101.5zM178 167v417h95q106 0 106 -119q0 -92 -62 -114l69 -184h-49
l-65 177h-48v-177h-46zM224 385h47q34 0 48.5 18.5t14.5 59.5t-14.5 59t-48.5 18h-47v-155z" />
    <glyph glyph-name="macron" unicode="&#xaf;" horiz-adv-x="358" 
d="M77 620v55h204v-55h-204z" />
    <glyph glyph-name="degree" unicode="&#xb0;" horiz-adv-x="282" 
d="M141 480q-46 0 -73 38t-27 98q0 61 27 99t73 38t72.5 -38t26.5 -99t-26.5 -98.5t-72.5 -37.5zM141 523q25 0 38.5 25.5t13.5 67.5q0 43 -13.5 69.5t-38.5 26.5t-38 -26t-13 -70q0 -43 13 -68t38 -25z" />
    <glyph glyph-name="twosuperior" unicode="&#xb2;" horiz-adv-x="276" 
d="M26 286v17q0 51 17.5 91t42 65.5t49 49.5t42 54.5t17.5 68.5q0 72 -51 72q-25 0 -39 -17t-24 -61l-49 11q24 117 113 117q49 0 76.5 -31.5t27.5 -88.5q0 -48 -25 -89.5t-55 -67t-56.5 -63t-29.5 -78.5h167v-50h-223z" />
    <glyph glyph-name="threesuperior" unicode="&#xb3;" horiz-adv-x="284" 
d="M138 278q-46 0 -73.5 25.5t-45.5 81.5l49 14q20 -71 69 -71q60 0 60 85q0 49 -18.5 71.5t-68.5 22.5h-20v47h23q43 0 60 19t17 61q0 71 -51 71q-38 0 -61 -58l-45 18q33 89 109 89q101 0 101 -118q0 -78 -53 -105q59 -27 59 -118q0 -59 -29 -97t-82 -38z" />
    <glyph glyph-name="acute" unicode="&#xb4;" horiz-adv-x="358" 
d="M130 583l67 152h73l-97 -152h-43z" />
    <glyph glyph-name="mu" unicode="&#xb5;" horiz-adv-x="411" 
d="M56 -200v726h61v-392q0 -45 13 -67t46 -22q51 0 118 71v410h61v-526h-61v66q-61 -70 -125 -72q-41 0 -52 24v-218h-61z" />
    <glyph glyph-name="paragraph" unicode="&#xb6;" horiz-adv-x="442" 
d="M197 -200v541q-76 2 -117 52t-41 146q0 88 40 144.5t109 56.5h189v-940h-59v884h-63v-884h-58z" />
    <glyph glyph-name="periodcentered" unicode="&#xb7;" horiz-adv-x="268" 
d="M92 269v91h82v-91h-82z" />
    <glyph glyph-name="cedilla" unicode="&#xb8;" horiz-adv-x="358" 
d="M188 -194q-54 0 -95 36l20 30q39 -30 74 -30q49 0 49 46q0 34 -30 34q-19 0 -36 -19l-28 13l18 84h39l-11 -53q14 14 38 14q23 0 41 -17t18 -51q0 -44 -27 -65.5t-70 -21.5z" />
    <glyph glyph-name="onesuperior" unicode="&#xb9;" horiz-adv-x="269" 
d="M56 281v50h59v344q-26 -13 -58 -13v49q44 2 63 29h49v-409h53v-50h-166z" />
    <glyph glyph-name="ordmasculine" unicode="&#xba;" horiz-adv-x="295" 
d="M147 365q-56 0 -87 50t-31 143q0 95 30.5 145t87.5 50t88 -50t31 -145q0 -93 -31 -143t-88 -50zM147 409q68 0 68 150q0 149 -68 149t-68 -149q0 -150 68 -150z" />
    <glyph glyph-name="guillemotright" unicode="&#xbb;" horiz-adv-x="351" 
d="M170 0l91 263l-91 263h60l91 -263l-91 -263h-60zM27 0l93 263l-93 263h60l94 -263l-94 -263h-60z" />
    <glyph glyph-name="onequarter" unicode="&#xbc;" horiz-adv-x="656" 
d="M56 281v50h59v344q-26 -13 -58 -13v49q44 2 63 29h49v-409h53v-50h-166zM158 0l311 740h57l-310 -740h-58zM521 0v111h-147v37l144 311h55v-300h52v-48h-52v-111h-52zM430 159h91v198h-1z" />
    <glyph glyph-name="onehalf" unicode="&#xbd;" horiz-adv-x="692" 
d="M56 281v50h59v344q-26 -13 -58 -13v49q44 2 63 29h49v-409h53v-50h-166zM158 0l311 740h57l-310 -740h-58zM428 0v17q0 51 17 91t41.5 65.5t49.5 49t42 54.5t17 68q0 72 -51 72q-25 0 -38.5 -17t-23.5 -60l-49 10q24 118 113 118q48 0 75.5 -32t27.5 -89
q0 -40 -16.5 -73.5t-40 -58t-47.5 -48t-41.5 -53.5t-19.5 -64h166v-50h-222z" />
    <glyph glyph-name="threequarters" unicode="&#xbe;" horiz-adv-x="665" 
d="M138 278q-46 0 -73.5 25.5t-45.5 81.5l49 14q20 -71 69 -71q60 0 60 85q0 49 -18.5 71.5t-68.5 22.5h-20v47h23q43 0 60 19t17 61q0 71 -51 71q-38 0 -61 -58l-45 18q33 89 109 89q101 0 101 -118q0 -78 -53 -105q59 -27 59 -118q0 -59 -29 -97t-82 -38zM167 0l310 740
h57l-309 -740h-58zM529 0v111h-147v37l145 311h55v-300h51v-48h-51v-111h-53zM438 159h92v198h-2z" />
    <glyph glyph-name="questiondown" unicode="&#xbf;" horiz-adv-x="378" 
d="M169 651v89h74v-89h-74zM186 -8q-76 0 -114 45.5t-38 119.5q0 50 17 87.5t50 80.5q53 70 64 104t11 115h58q0 -21 -0.5 -38.5t-1 -31t-4 -27.5t-4.5 -22t-7.5 -21t-8.5 -18t-12 -19.5t-12.5 -19t-16.5 -23t-18 -24.5q-52 -70 -52 -140q0 -51 23 -81.5t69 -30.5
q39 0 64 27t45 78l54 -18q-52 -143 -166 -143z" />
    <glyph glyph-name="Agrave" unicode="&#xc0;" horiz-adv-x="459" 
d="M135 231l-52 -231h-57l173 743h60l174 -743h-62l-52 231h-184zM307 284l-38 169q-30 136 -41 207h-2q-10 -64 -41 -206l-38 -170h160zM218 787l-98 152h73l66 -152h-41z" />
    <glyph glyph-name="Aacute" unicode="&#xc1;" horiz-adv-x="459" 
d="M135 231l-52 -231h-57l173 743h60l174 -743h-62l-52 231h-184zM307 284l-38 169q-30 136 -41 207h-2q-10 -64 -41 -206l-38 -170h160zM200 787l67 152h73l-97 -152h-43z" />
    <glyph glyph-name="Acircumflex" unicode="&#xc2;" horiz-adv-x="459" 
d="M135 231l-52 -231h-57l173 743h60l174 -743h-62l-52 231h-184zM307 284l-38 169q-30 136 -41 207h-2q-10 -64 -41 -206l-38 -170h160zM118 782l91 157h41l90 -157h-40l-72 90l-69 -90h-41z" />
    <glyph glyph-name="Atilde" unicode="&#xc3;" horiz-adv-x="459" 
d="M135 231l-52 -231h-57l173 743h60l174 -743h-62l-52 231h-184zM307 284l-38 169q-30 136 -41 207h-2q-10 -64 -41 -206l-38 -170h160zM285 782q-25 0 -62.5 28t-49.5 28q-15 0 -21 -12t-6 -42h-42q0 110 69 110q24 0 61 -28t50 -28q14 0 20.5 11t6.5 43h41
q0 -110 -67 -110z" />
    <glyph glyph-name="Adieresis" unicode="&#xc4;" horiz-adv-x="459" 
d="M135 231l-52 -231h-57l173 743h60l174 -743h-62l-52 231h-184zM307 284l-38 169q-30 136 -41 207h-2q-10 -64 -41 -206l-38 -170h160zM259 786v77h65v-77h-65zM133 786v77h65v-77h-65z" />
    <glyph glyph-name="Aring" unicode="&#xc5;" horiz-adv-x="459" 
d="M136 233l-53 -233h-57l167 715q-40 23 -40 89q0 43 19.5 70.5t55.5 27.5q34 0 55 -27.5t21 -70.5q0 -65 -39 -88l168 -716h-62l-52 233h-183zM228 744q34 0 34 60q0 57 -34 57q-33 0 -33 -57q0 -60 33 -60zM307 284l-38 169q-30 136 -41 207h-2q-10 -64 -41 -206
l-38 -170h160z" />
    <glyph glyph-name="AE" unicode="&#xc6;" horiz-adv-x="647" 
d="M14 0l257 740h331v-58h-229v-261h164v-57h-164v-307h242v-57h-305v233h-152l-80 -233h-64zM177 289h133v389h-2z" />
    <glyph glyph-name="Ccedilla" unicode="&#xc7;" horiz-adv-x="465" 
d="M213 -5q-86 15 -128.5 106t-42.5 270q0 377 205 377q83 0 125 -60.5t56 -171.5l-62 -9q-24 182 -119 182q-142 0 -142 -317q0 -322 143 -322q54 0 84 46t43 143l62 -7q-33 -237 -186 -240l-8 -44q14 14 38 14t41 -16.5t17 -51.5q0 -45 -27 -66t-69 -21q-55 0 -95 37
l20 29q36 -29 74 -29q48 0 48 45q0 35 -30 35q-18 0 -35 -19l-29 13z" />
    <glyph glyph-name="Egrave" unicode="&#xc8;" horiz-adv-x="403" 
d="M66 0v740h292v-58h-229v-261h164v-57h-164v-307h243v-57h-306zM207 787l-98 152h73l66 -152h-41z" />
    <glyph glyph-name="Eacute" unicode="&#xc9;" horiz-adv-x="403" 
d="M66 0v740h292v-58h-229v-261h164v-57h-164v-307h243v-57h-306zM153 787l67 152h73l-97 -152h-43z" />
    <glyph glyph-name="Ecircumflex" unicode="&#xca;" horiz-adv-x="403" 
d="M66 0v740h292v-58h-229v-261h164v-57h-164v-307h243v-57h-306zM90 782l91 157h41l90 -157h-40l-72 90l-69 -90h-41z" />
    <glyph glyph-name="Edieresis" unicode="&#xcb;" horiz-adv-x="403" 
d="M66 0v740h292v-58h-229v-261h164v-57h-164v-307h243v-57h-306zM232 786v77h65v-77h-65zM106 786v77h65v-77h-65z" />
    <glyph glyph-name="Igrave" unicode="&#xcc;" 
d="M71 0v740h63v-740h-63zM82 788l-98 152h73l66 -152h-41z" />
    <glyph glyph-name="Iacute" unicode="&#xcd;" 
d="M71 0v740h63v-740h-63zM81 788l67 152h73l-97 -152h-43z" />
    <glyph glyph-name="Icircumflex" unicode="&#xce;" 
d="M71 0v740h63v-740h-63zM-9 783l91 157h41l90 -157h-40l-72 90l-69 -90h-41z" />
    <glyph glyph-name="Idieresis" unicode="&#xcf;" 
d="M71 0v740h63v-740h-63zM133 787v77h65v-77h-65zM7 787v77h65v-77h-65z" />
    <glyph glyph-name="Eth" unicode="&#xd0;" horiz-adv-x="478" 
d="M65 0v364h-53v57h53v319h124q131 0 190 -86t59 -284q0 -196 -60 -283t-189 -87h-124zM131 58h67q93 0 133 75t40 237q0 160 -40.5 235.5t-133.5 75.5h-66v-260h98v-57h-98v-306z" />
    <glyph glyph-name="Ntilde" unicode="&#xd1;" horiz-adv-x="496" 
d="M66 0v740h74l179 -454q36 -90 55 -146h1v600h55v-740h-55l-201 504q-36 87 -52 137h-2v-641h-54zM304 782q-25 0 -62.5 28t-49.5 28q-15 0 -21 -12t-6 -42h-42q0 110 69 110q24 0 61 -28t50 -28q14 0 20.5 11t6.5 43h41q0 -110 -67 -110z" />
    <glyph glyph-name="Ograve" unicode="&#xd2;" horiz-adv-x="500" 
d="M251 -8q-99 0 -154 94t-55 284t55 284t154 94q98 0 153.5 -94.5t55.5 -283.5t-55.5 -283.5t-153.5 -94.5zM251 50q143 0 143 320q0 319 -143 319q-72 0 -109 -82t-37 -237t37 -237.5t109 -82.5zM254 787l-98 152h73l66 -152h-41z" />
    <glyph glyph-name="Oacute" unicode="&#xd3;" horiz-adv-x="500" 
d="M251 -8q-99 0 -154 94t-55 284t55 284t154 94q98 0 153.5 -94.5t55.5 -283.5t-55.5 -283.5t-153.5 -94.5zM251 50q143 0 143 320q0 319 -143 319q-72 0 -109 -82t-37 -237t37 -237.5t109 -82.5zM200 787l67 152h73l-97 -152h-43z" />
    <glyph glyph-name="Ocircumflex" unicode="&#xd4;" horiz-adv-x="500" 
d="M251 -8q-99 0 -154 94t-55 284t55 284t154 94q98 0 153.5 -94.5t55.5 -283.5t-55.5 -283.5t-153.5 -94.5zM251 50q143 0 143 320q0 319 -143 319q-72 0 -109 -82t-37 -237t37 -237.5t109 -82.5zM138 782l91 157h41l90 -157h-40l-72 90l-69 -90h-41z" />
    <glyph glyph-name="Otilde" unicode="&#xd5;" horiz-adv-x="500" 
d="M251 -8q-99 0 -154 94t-55 284t55 284t154 94q98 0 153.5 -94.5t55.5 -283.5t-55.5 -283.5t-153.5 -94.5zM251 50q143 0 143 320q0 319 -143 319q-72 0 -109 -82t-37 -237t37 -237.5t109 -82.5zM306 782q-25 0 -62.5 28t-49.5 28q-15 0 -21 -12t-6 -42h-42q0 110 69 110
q24 0 61 -28t50 -28q14 0 20.5 11t6.5 43h41q0 -110 -67 -110z" />
    <glyph glyph-name="Odieresis" unicode="&#xd6;" horiz-adv-x="500" 
d="M251 -8q-99 0 -154 94t-55 284t55 284t154 94q98 0 153.5 -94.5t55.5 -283.5t-55.5 -283.5t-153.5 -94.5zM251 50q143 0 143 320q0 319 -143 319q-72 0 -109 -82t-37 -237t37 -237.5t109 -82.5zM280 786v77h65v-77h-65zM154 786v77h65v-77h-65z" />
    <glyph glyph-name="multiply" unicode="&#xd7;" horiz-adv-x="451" 
d="M264 325l144 -145l-37 -37l-144 145l-145 -145l-37 37l145 145l-145 144l38 37l144 -144l143 144l37 -38z" />
    <glyph glyph-name="Oslash" unicode="&#xd8;" horiz-adv-x="500" 
d="M417 629q43 -94 43 -259q0 -189 -55.5 -283.5t-153.5 -94.5q-87 0 -139 71l-51 -95l-44 23l66 122q-41 93 -41 257q0 190 55 284t154 94q86 0 137 -69l50 93l43 -23zM124 183l232 431q-36 76 -105 76q-72 0 -109.5 -82.5t-37.5 -237.5q0 -112 20 -187zM376 558l-233 -430
q38 -78 108 -78q71 0 107.5 82.5t36.5 237.5q0 116 -19 188z" />
    <glyph glyph-name="Ugrave" unicode="&#xd9;" horiz-adv-x="484" 
d="M243 -8q-99 0 -140 63.5t-41 178.5v506h63v-494q0 -98 25.5 -147.5t93.5 -49.5q67 0 92 48.5t25 146.5v496h61v-503q0 -117 -40.5 -181t-138.5 -64zM247 787l-98 152h73l66 -152h-41z" />
    <glyph glyph-name="Uacute" unicode="&#xda;" horiz-adv-x="484" 
d="M243 -8q-99 0 -140 63.5t-41 178.5v506h63v-494q0 -98 25.5 -147.5t93.5 -49.5q67 0 92 48.5t25 146.5v496h61v-503q0 -117 -40.5 -181t-138.5 -64zM193 787l67 152h73l-97 -152h-43z" />
    <glyph glyph-name="Ucircumflex" unicode="&#xdb;" horiz-adv-x="484" 
d="M243 -8q-99 0 -140 63.5t-41 178.5v506h63v-494q0 -98 25.5 -147.5t93.5 -49.5q67 0 92 48.5t25 146.5v496h61v-503q0 -117 -40.5 -181t-138.5 -64zM131 782l91 157h41l90 -157h-40l-72 90l-69 -90h-41z" />
    <glyph glyph-name="Udieresis" unicode="&#xdc;" horiz-adv-x="484" 
d="M243 -8q-99 0 -140 63.5t-41 178.5v506h63v-494q0 -98 25.5 -147.5t93.5 -49.5q67 0 92 48.5t25 146.5v496h61v-503q0 -117 -40.5 -181t-138.5 -64zM272 786v77h65v-77h-65zM146 786v77h65v-77h-65z" />
    <glyph glyph-name="Yacute" unicode="&#xdd;" horiz-adv-x="411" 
d="M174 0v290l-160 450h64l128 -377h3l128 377h61l-161 -450v-290h-63zM157 787l67 152h73l-97 -152h-43z" />
    <glyph glyph-name="Thorn" unicode="&#xde;" horiz-adv-x="439" 
d="M65 0v740h66v-133h95q186 0 186 -206q0 -119 -51.5 -167.5t-140.5 -48.5h-89v-185h-66zM131 244h92q63 0 93 36.5t30 118.5q0 79 -30 114t-94 35h-91v-304z" />
    <glyph glyph-name="germandbls" unicode="&#xdf;" horiz-adv-x="420" 
d="M241 -5q-54 0 -95 24l25 49q29 -17 67 -17q98 0 98 158q0 85 -37.5 128t-111.5 52v49q107 12 107 131q0 116 -86 116q-89 0 -89 -134v-551h-62v549q0 92 40.5 141.5t113.5 49.5q69 0 106 -43.5t37 -123.5q0 -56 -26 -96.5t-70 -57.5q139 -44 139 -210q0 -110 -42 -162
t-114 -52z" />
    <glyph glyph-name="agrave" unicode="&#xe0;" horiz-adv-x="383" 
d="M135 -5q-49 0 -75.5 34.5t-26.5 94.5q0 74 59 134t176 92v43q0 87 -65 87q-60 0 -119 -73l-40 38q71 89 165 89q64 0 91.5 -35t27.5 -108v-261q0 -93 11 -130h-62q-9 38 -9 65q-57 -70 -133 -70zM156 50q55 0 112 67v180q-92 -24 -134 -70t-42 -98q0 -79 64 -79zM196 583
l-98 152h73l66 -152h-41z" />
    <glyph glyph-name="aacute" unicode="&#xe1;" horiz-adv-x="383" 
d="M135 -5q-49 0 -75.5 34.5t-26.5 94.5q0 74 59 134t176 92v43q0 87 -65 87q-60 0 -119 -73l-40 38q71 89 165 89q64 0 91.5 -35t27.5 -108v-261q0 -93 11 -130h-62q-9 38 -9 65q-57 -70 -133 -70zM156 50q55 0 112 67v180q-92 -24 -134 -70t-42 -98q0 -79 64 -79zM142 583
l67 152h73l-97 -152h-43z" />
    <glyph glyph-name="acircumflex" unicode="&#xe2;" horiz-adv-x="383" 
d="M135 -5q-49 0 -75.5 34.5t-26.5 94.5q0 74 59 134t176 92v43q0 87 -65 87q-60 0 -119 -73l-40 38q71 89 165 89q64 0 91.5 -35t27.5 -108v-261q0 -93 11 -130h-62q-9 38 -9 65q-57 -70 -133 -70zM156 50q55 0 112 67v180q-92 -24 -134 -70t-42 -98q0 -79 64 -79zM80 578
l91 157h41l90 -157h-40l-72 90l-69 -90h-41z" />
    <glyph glyph-name="atilde" unicode="&#xe3;" horiz-adv-x="383" 
d="M135 -5q-49 0 -75.5 34.5t-26.5 94.5q0 74 59 134t176 92v43q0 87 -65 87q-60 0 -119 -73l-40 38q71 89 165 89q64 0 91.5 -35t27.5 -108v-261q0 -93 11 -130h-62q-9 38 -9 65q-57 -70 -133 -70zM156 50q55 0 112 67v180q-92 -24 -134 -70t-42 -98q0 -79 64 -79zM248 578
q-25 0 -62.5 28t-49.5 28q-15 0 -21 -12t-6 -42h-42q0 110 69 110q24 0 61 -28t50 -28q14 0 20.5 11t6.5 43h41q0 -110 -67 -110z" />
    <glyph glyph-name="adieresis" unicode="&#xe4;" horiz-adv-x="383" 
d="M135 -5q-49 0 -75.5 34.5t-26.5 94.5q0 74 59 134t176 92v43q0 87 -65 87q-60 0 -119 -73l-40 38q71 89 165 89q64 0 91.5 -35t27.5 -108v-261q0 -93 11 -130h-62q-9 38 -9 65q-57 -70 -133 -70zM156 50q55 0 112 67v180q-92 -24 -134 -70t-42 -98q0 -79 64 -79zM222 582
v77h65v-77h-65zM96 582v77h65v-77h-65z" />
    <glyph glyph-name="aring" unicode="&#xe5;" horiz-adv-x="383" 
d="M135 -5q-49 0 -75.5 34.5t-26.5 94.5q0 74 59 134t176 92v43q0 87 -65 87q-60 0 -119 -73l-40 38q71 89 165 89q64 0 91.5 -35t27.5 -108v-261q0 -93 11 -130h-62q-9 38 -9 65q-57 -70 -133 -70zM156 50q55 0 112 67v180q-92 -24 -134 -70t-42 -98q0 -79 64 -79zM191 567
q-35 0 -55 28t-20 72q0 43 20 70.5t55 27.5t55.5 -27.5t20.5 -70.5q0 -44 -20 -72t-56 -28zM191 607q34 0 34 60q0 57 -34 57q-33 0 -33 -57q0 -60 33 -60z" />
    <glyph glyph-name="ae" unicode="&#xe6;" horiz-adv-x="615" 
d="M296 86q-42 -51 -79 -72t-82 -21q-49 0 -75.5 34.5t-26.5 94.5q0 77 58.5 136.5t176.5 91.5v44q0 86 -65 86q-60 0 -119 -73l-40 38q71 89 166 89q82 0 103 -68q40 68 116 68q78 0 114.5 -74.5t36.5 -193.5v-15h-254q2 -204 104 -204q39 0 61 25t36 76l51 -14
q-36 -142 -151 -142q-91 0 -131 94zM327 302h192q-2 80 -24 129t-67 49q-91 0 -101 -178zM269 297q-92 -22 -134.5 -69t-42.5 -102q0 -79 64 -79q60 0 126 82q-14 58 -14 134q0 23 1 34z" />
    <glyph glyph-name="ccedilla" unicode="&#xe7;" horiz-adv-x="368" 
d="M163 -4q-61 14 -94.5 82t-33.5 185q0 135 43 203t120 68q62 0 94 -39.5t49 -116.5l-57 -13q-14 59 -32.5 86.5t-55.5 27.5q-46 0 -72.5 -55.5t-26.5 -159.5q0 -217 101 -217q36 0 55.5 27t33.5 88l55 -11q-17 -79 -50.5 -118t-89.5 -41l-9 -44q14 14 38 14q23 0 41 -17
t18 -51q0 -45 -27.5 -66.5t-69.5 -21.5q-55 0 -95 37l20 29q38 -29 74 -29q49 0 49 46q0 34 -30 34q-19 0 -36 -19l-28 13z" />
    <glyph glyph-name="egrave" unicode="&#xe8;" horiz-adv-x="384" 
d="M196 -8q-76 0 -118.5 68.5t-42.5 202.5q0 135 43.5 203t119.5 68q78 0 114.5 -74.5t36.5 -193.5v-15h-253q0 -204 103 -204q39 0 61 25t36 76l52 -14q-37 -142 -152 -142zM96 302h193q-2 80 -24.5 129t-67.5 49q-90 0 -101 -178zM197 583l-98 152h73l66 -152h-41z" />
    <glyph glyph-name="eacute" unicode="&#xe9;" horiz-adv-x="384" 
d="M196 -8q-76 0 -118.5 68.5t-42.5 202.5q0 135 43.5 203t119.5 68q78 0 114.5 -74.5t36.5 -193.5v-15h-253q0 -204 103 -204q39 0 61 25t36 76l52 -14q-37 -142 -152 -142zM96 302h193q-2 80 -24.5 129t-67.5 49q-90 0 -101 -178zM143 583l67 152h73l-97 -152h-43z" />
    <glyph glyph-name="ecircumflex" unicode="&#xea;" horiz-adv-x="384" 
d="M196 -8q-76 0 -118.5 68.5t-42.5 202.5q0 135 43.5 203t119.5 68q78 0 114.5 -74.5t36.5 -193.5v-15h-253q0 -204 103 -204q39 0 61 25t36 76l52 -14q-37 -142 -152 -142zM96 302h193q-2 80 -24.5 129t-67.5 49q-90 0 -101 -178zM80 578l91 157h41l90 -157h-40l-72 90
l-69 -90h-41z" />
    <glyph glyph-name="edieresis" unicode="&#xeb;" horiz-adv-x="384" 
d="M196 -8q-76 0 -118.5 68.5t-42.5 202.5q0 135 43.5 203t119.5 68q78 0 114.5 -74.5t36.5 -193.5v-15h-253q0 -204 103 -204q39 0 61 25t36 76l52 -14q-37 -142 -152 -142zM96 302h193q-2 80 -24.5 129t-67.5 49q-90 0 -101 -178zM222 582v77h65v-77h-65zM96 582v77h65
v-77h-65z" />
    <glyph glyph-name="igrave" unicode="&#xec;" horiz-adv-x="184" 
d="M61 0v526h62v-526h-62zM72 583l-98 152h73l66 -152h-41z" />
    <glyph glyph-name="iacute" unicode="&#xed;" horiz-adv-x="184" 
d="M61 0v526h62v-526h-62zM73 583l67 152h73l-97 -152h-43z" />
    <glyph glyph-name="icircumflex" unicode="&#xee;" horiz-adv-x="184" 
d="M61 0v526h62v-526h-62zM-19 578l91 157h41l90 -157h-40l-72 90l-69 -90h-41z" />
    <glyph glyph-name="idieresis" unicode="&#xef;" horiz-adv-x="184" 
d="M61 0v526h62v-526h-62zM122 582v77h65v-77h-65zM-4 582v77h65v-77h-65z" />
    <glyph glyph-name="eth" unicode="&#xf0;" horiz-adv-x="400" 
d="M249 612l-71 -39l-22 40l68 37q-19 28 -50 59l37 36q31 -30 61 -68l65 36l22 -41l-62 -34q68 -112 68 -332q0 -315 -166 -315q-79 0 -121.5 70t-42.5 200q0 131 41.5 200.5t119.5 69.5t112 -89q-15 89 -59 170zM199 45q53 0 78.5 58t25.5 159q0 97 -25 156.5t-79 59.5
q-102 0 -102 -216q0 -217 102 -217z" />
    <glyph glyph-name="ntilde" unicode="&#xf1;" horiz-adv-x="410" 
d="M56 0v526h61v-67q25 29 62.5 52t75.5 23q53 0 77.5 -31.5t24.5 -102.5v-400h-61v389q0 45 -13 66.5t-46 21.5q-53 0 -120 -71v-406h-61zM261 578q-25 0 -62.5 28t-49.5 28q-15 0 -21 -12t-6 -42h-42q0 110 69 110q24 0 61 -28t50 -28q14 0 20.5 11t6.5 43h41
q0 -110 -67 -110z" />
    <glyph glyph-name="ograve" unicode="&#xf2;" horiz-adv-x="400" 
d="M201 -8q-79 0 -122.5 69t-43.5 202t43 202t123 69q78 0 121 -69t43 -202t-43 -202t-121 -69zM201 46q102 0 102 218q0 215 -102 215q-104 0 -104 -215q0 -218 104 -218zM205 583l-98 152h73l66 -152h-41z" />
    <glyph glyph-name="oacute" unicode="&#xf3;" horiz-adv-x="400" 
d="M201 -8q-79 0 -122.5 69t-43.5 202t43 202t123 69q78 0 121 -69t43 -202t-43 -202t-121 -69zM201 46q102 0 102 218q0 215 -102 215q-104 0 -104 -215q0 -218 104 -218zM151 583l67 152h73l-97 -152h-43z" />
    <glyph glyph-name="ocircumflex" unicode="&#xf4;" horiz-adv-x="400" 
d="M201 -8q-79 0 -122.5 69t-43.5 202t43 202t123 69q78 0 121 -69t43 -202t-43 -202t-121 -69zM201 46q102 0 102 218q0 215 -102 215q-104 0 -104 -215q0 -218 104 -218zM89 578l91 157h41l90 -157h-40l-72 90l-69 -90h-41z" />
    <glyph glyph-name="otilde" unicode="&#xf5;" horiz-adv-x="400" 
d="M201 -8q-79 0 -122.5 69t-43.5 202t43 202t123 69q78 0 121 -69t43 -202t-43 -202t-121 -69zM201 46q102 0 102 218q0 215 -102 215q-104 0 -104 -215q0 -218 104 -218zM256 578q-25 0 -62.5 28t-49.5 28q-15 0 -21 -12t-6 -42h-42q0 110 69 110q24 0 61 -28t50 -28
q14 0 20.5 11t6.5 43h41q0 -110 -67 -110z" />
    <glyph glyph-name="odieresis" unicode="&#xf6;" horiz-adv-x="400" 
d="M201 -8q-79 0 -122.5 69t-43.5 202t43 202t123 69q78 0 121 -69t43 -202t-43 -202t-121 -69zM201 46q102 0 102 218q0 215 -102 215q-104 0 -104 -215q0 -218 104 -218zM230 582v77h65v-77h-65zM104 582v77h65v-77h-65z" />
    <glyph glyph-name="divide" unicode="&#xf7;" horiz-adv-x="451" 
d="M192 457v86h65v-86h-65zM44 298v56h363v-56h-363zM192 107v85h65v-85h-65z" />
    <glyph glyph-name="oslash" unicode="&#xf8;" horiz-adv-x="400" 
d="M326 459q39 -70 39 -196q0 -133 -43 -202t-121 -69q-54 0 -93 33l-27 -54l-44 22l37 75q-39 70 -39 195q0 133 43 202t123 69q53 0 91 -33l27 53l44 -22zM111 133l155 312q-24 35 -65 35q-105 0 -105 -216q0 -81 15 -131zM290 393l-157 -311q27 -36 68 -36q103 0 103 218
q0 79 -14 129z" />
    <glyph glyph-name="ugrave" unicode="&#xf9;" horiz-adv-x="408" 
d="M155 -7q-53 0 -77.5 32t-24.5 103v398h61v-387q0 -46 13 -67.5t46 -21.5q51 0 118 71v405h61v-526h-61v69q-63 -76 -136 -76zM209 583l-98 152h73l66 -152h-41z" />
    <glyph glyph-name="uacute" unicode="&#xfa;" horiz-adv-x="408" 
d="M155 -7q-53 0 -77.5 32t-24.5 103v398h61v-387q0 -46 13 -67.5t46 -21.5q51 0 118 71v405h61v-526h-61v69q-63 -76 -136 -76zM155 583l67 152h73l-97 -152h-43z" />
    <glyph glyph-name="ucircumflex" unicode="&#xfb;" horiz-adv-x="408" 
d="M155 -7q-53 0 -77.5 32t-24.5 103v398h61v-387q0 -46 13 -67.5t46 -21.5q51 0 118 71v405h61v-526h-61v69q-63 -76 -136 -76zM93 578l91 157h41l90 -157h-40l-72 90l-69 -90h-41z" />
    <glyph glyph-name="udieresis" unicode="&#xfc;" horiz-adv-x="408" 
d="M155 -7q-53 0 -77.5 32t-24.5 103v398h61v-387q0 -46 13 -67.5t46 -21.5q51 0 118 71v405h61v-526h-61v69q-63 -76 -136 -76zM235 582v77h65v-77h-65zM109 582v77h65v-77h-65z" />
    <glyph glyph-name="yacute" unicode="&#xfd;" horiz-adv-x="371" 
d="M66 -200q-37 0 -62 10l14 51q17 -7 48 -7q29 0 44.5 22t29.5 75l16 59l-136 516h60l76 -303q15 -56 29 -134h2q16 83 30 133l77 304h58l-156 -585q-20 -78 -47.5 -109.5t-82.5 -31.5zM136 583l67 152h73l-97 -152h-43z" />
    <glyph glyph-name="thorn" unicode="&#xfe;" horiz-adv-x="412" 
d="M56 -200v940h61v-275q49 70 115 70q144 0 144 -271t-146 -271q-66 0 -113 71v-264h-61zM219 48q95 0 95 215q0 216 -96 216q-45 0 -101 -69v-289q50 -73 102 -73z" />
    <glyph glyph-name="ydieresis" unicode="&#xff;" horiz-adv-x="371" 
d="M66 -200q-37 0 -62 10l14 51q17 -7 48 -7q29 0 44.5 22t29.5 75l16 59l-136 516h60l76 -303q15 -56 29 -134h2q16 83 30 133l77 304h58l-156 -585q-20 -78 -47.5 -109.5t-82.5 -31.5zM215 582v77h65v-77h-65zM89 582v77h65v-77h-65z" />
    <glyph glyph-name="dotlessi" unicode="&#x131;" horiz-adv-x="184" 
d="M61 0v526h62v-526h-62z" />
    <glyph glyph-name="Lslash" unicode="&#x141;" horiz-adv-x="385" 
d="M66 0v345l-54 -21v60l54 20v336h66v-312l96 37v-59l-96 -37v-310h228v-59h-294z" />
    <glyph glyph-name="lslash" unicode="&#x142;" horiz-adv-x="230" 
d="M83 0v348l-60 -22v55l60 22v337h64v-314l59 21v-55l-59 -21v-371h-64z" />
    <glyph glyph-name="OE" unicode="&#x152;" horiz-adv-x="732" 
d="M403 625v115h283v-58h-228v-261h164v-57h-164v-307h242v-57h-297v115q-45 -123 -152 -123q-99 0 -154 94t-55 284t55 284t154 94q107 0 152 -123zM251 50q143 0 143 320q0 319 -143 319q-72 0 -109 -82t-37 -237t37 -237.5t109 -82.5z" />
    <glyph glyph-name="oe" unicode="&#x153;" horiz-adv-x="651" 
d="M201 -8q-79 0 -122.5 69t-43.5 202t43 202t123 69q93 0 132 -101q38 101 132 101q78 0 114.5 -74.5t36.5 -193.5v-15h-254q2 -204 104 -204q39 0 61 25t35 76l52 -14q-37 -142 -151 -142q-92 0 -130 101q-40 -101 -132 -101zM363 302h192q-5 178 -91 178q-91 0 -101 -178
zM201 46q102 0 102 218q0 215 -102 215q-104 0 -104 -215q0 -218 104 -218z" />
    <glyph glyph-name="Scaron" unicode="&#x160;" horiz-adv-x="435" 
d="M222 -10q-79 0 -124 47t-72 142l59 15q20 -74 51.5 -110.5t86.5 -36.5q54 0 82.5 30.5t28.5 82.5q0 43 -29 85t-70 78.5t-82.5 74.5t-70.5 88t-29 104q0 73 44.5 116.5t116.5 43.5q70 0 110.5 -43.5t63.5 -126.5l-58 -16q-19 66 -46 97t-72 31t-70.5 -25.5t-25.5 -72.5
t29 -91t70 -80t82.5 -72.5t70.5 -85.5t29 -103q0 -78 -48.5 -125t-126.5 -47zM197 785l-90 157h41l70 -90l72 90h39l-91 -157h-41z" />
    <glyph glyph-name="scaron" unicode="&#x161;" horiz-adv-x="353" 
d="M176 -11q-110 0 -160 125l54 22q35 -93 105 -93q43 0 64.5 20.5t21.5 55.5q0 28 -16.5 52.5t-40.5 41t-53 37.5t-53 41t-40.5 51.5t-16.5 69.5q0 56 39.5 90t93.5 34q104 0 144 -119l-55 -18q-26 83 -89 83q-33 0 -53 -19t-20 -49q0 -33 23 -60.5t55.5 -49.5t64.5 -45.5
t55 -59t23 -79.5q0 -57 -39.5 -94t-106.5 -37zM158 580l-90 157h41l70 -90l72 90h39l-91 -157h-41z" />
    <glyph glyph-name="Ydieresis" unicode="&#x178;" horiz-adv-x="411" 
d="M174 0v290l-160 450h64l128 -377h3l128 377h61l-161 -450v-290h-63zM236 786v77h65v-77h-65zM110 786v77h65v-77h-65z" />
    <glyph glyph-name="Zcaron" unicode="&#x17d;" horiz-adv-x="417" 
d="M29 0v50l283 632h-262v58h333v-51l-284 -632h284v-57h-354zM187 784l-90 157h41l70 -90l72 90h39l-91 -157h-41z" />
    <glyph glyph-name="zcaron" unicode="&#x17e;" horiz-adv-x="344" 
d="M28 0v44l209 428h-190v54h259v-43l-210 -430h218v-53h-286zM150 580l-90 157h41l70 -90l72 90h39l-91 -157h-41z" />
    <glyph glyph-name="florin" unicode="&#x192;" horiz-adv-x="263" 
d="M-37 -202q-24 0 -42 3l9 56q14 -3 29 -3q29 0 44.5 14.5t20.5 50.5l60 435h-65l8 55h65l30 215q17 119 127 119q6 0 36 -3l-10 -56q-18 2 -27 2q-58 0 -66 -64l-30 -213h81l-8 -55h-80l-61 -442q-8 -64 -38.5 -89t-82.5 -25z" />
    <glyph glyph-name="circumflex" unicode="&#x2c6;" horiz-adv-x="362" 
d="M69 578l91 157h41l90 -157h-40l-72 90l-69 -90h-41z" />
    <glyph glyph-name="caron" unicode="&#x2c7;" horiz-adv-x="362" 
d="M159 580l-90 157h41l70 -90l72 90h39l-91 -157h-41z" />
    <glyph glyph-name="breve" unicode="&#x2d8;" horiz-adv-x="358" 
d="M179 579q-100 0 -106 161h45q4 -59 17.5 -84.5t43.5 -25.5q29 0 43 26t19 84h44q-6 -161 -106 -161z" />
    <glyph glyph-name="dotaccent" unicode="&#x2d9;" horiz-adv-x="358" 
d="M139 583v78h73v-78h-73z" />
    <glyph glyph-name="ring" unicode="&#x2da;" horiz-adv-x="360" 
d="M179 567q-35 0 -55 28t-20 72q0 43 20 70.5t55 27.5t55.5 -27.5t20.5 -70.5q0 -44 -20 -72t-56 -28zM179 607q34 0 34 60q0 57 -34 57q-33 0 -33 -57q0 -60 33 -60z" />
    <glyph glyph-name="ogonek" unicode="&#x2db;" horiz-adv-x="358" 
d="M180 -188q-77 0 -77 77q0 60 62 111h33q-47 -45 -47 -100q0 -50 40 -50q28 0 61 23l20 -23q-47 -38 -92 -38z" />
    <glyph glyph-name="tilde" unicode="&#x2dc;" horiz-adv-x="360" 
d="M236 578q-25 0 -62.5 28t-49.5 28q-15 0 -21 -12t-6 -42h-42q0 110 69 110q24 0 61 -28t50 -28q14 0 20.5 11t6.5 43h41q0 -110 -67 -110z" />
    <glyph glyph-name="hungarumlaut" unicode="&#x2dd;" horiz-adv-x="360" 
d="M168 583l66 152h77l-99 -152h-44zM52 583l65 152h76l-97 -152h-44z" />
    <glyph glyph-name="endash" unicode="&#x2013;" horiz-adv-x="444" 
d="M42 287v56h360v-56h-360z" />
    <glyph glyph-name="emdash" unicode="&#x2014;" horiz-adv-x="576" 
d="M42 287v56h491v-56h-491z" />
    <glyph glyph-name="quoteleft" unicode="&#x2018;" 
d="M65 545v85l40 110h29l-25 -103h30v-92h-74z" />
    <glyph glyph-name="quoteright" unicode="&#x2019;" 
d="M71 545l25 104h-32v91h75v-85l-39 -110h-29z" />
    <glyph glyph-name="quotesinglbase" unicode="&#x201a;" 
d="M71 -103l25 103h-32v91h75v-84l-39 -110h-29z" />
    <glyph glyph-name="quotedblleft" unicode="&#x201c;" horiz-adv-x="346" 
d="M206 545v85l39 110h29l-25 -103h32v-92h-75zM65 545v85l40 110h29l-26 -103h31v-92h-74z" />
    <glyph glyph-name="quotedblright" unicode="&#x201d;" horiz-adv-x="345" 
d="M212 545l24 104h-30v91h74v-85l-39 -110h-29zM71 545l25 104h-32v91h75v-85l-39 -110h-29z" />
    <glyph glyph-name="quotedblbase" unicode="&#x201e;" horiz-adv-x="345" 
d="M212 -103l24 103h-30v91h74v-84l-39 -110h-29zM71 -103l25 103h-32v91h75v-84l-39 -110h-29z" />
    <glyph glyph-name="dagger" unicode="&#x2020;" horiz-adv-x="392" 
d="M162 -200l11 627l-139 -9v61l139 -10l-11 271h67l-11 -271l139 10v-61l-139 9l11 -627h-67z" />
    <glyph glyph-name="daggerdbl" unicode="&#x2021;" horiz-adv-x="390" 
d="M162 -200l10 242l-134 -11v60l134 -9l-8 191l8 186l-134 -9v60l134 -11l-10 241h67l-12 -241l136 11v-60l-136 9l9 -186l-9 -191l136 9v-60l-136 11l12 -242h-67z" />
    <glyph glyph-name="bullet" unicode="&#x2022;" horiz-adv-x="463" 
d="M231 236q-49 0 -81.5 32t-32.5 82t32 82.5t82 32.5t82.5 -32.5t32.5 -82.5t-32.5 -82t-82.5 -32z" />
    <glyph glyph-name="ellipsis" unicode="&#x2026;" horiz-adv-x="598" 
d="M457 0v91h76v-91h-76zM261 0v91h76v-91h-76zM65 0v91h75v-91h-75z" />
    <glyph glyph-name="perthousand" unicode="&#x2030;" horiz-adv-x="962" 
d="M160 313q-118 0 -118 216q0 219 120 219q116 0 116 -216q0 -219 -118 -219zM157 0l311 740h56l-310 -740h-57zM801 -8q-118 0 -118 215q0 220 119 220q118 0 118 -216q0 -219 -119 -219zM521 -8q-118 0 -118 215q0 220 118 220t118 -216q0 -219 -118 -219zM161 364
q60 0 60 166q0 167 -61 167q-60 0 -60 -165q0 -168 61 -168zM802 43q61 0 61 166t-62 166q-60 0 -60 -164q0 -168 61 -168zM521 43q61 0 61 166t-62 166q-60 0 -60 -164q0 -168 61 -168z" />
    <glyph glyph-name="guilsinglleft" unicode="&#x2039;" horiz-adv-x="210" 
d="M115 0l-94 263l94 263h60l-93 -263l93 -263h-60z" />
    <glyph glyph-name="guilsinglright" unicode="&#x203a;" horiz-adv-x="210" 
d="M36 0l91 263l-91 263h59l94 -263l-94 -263h-59z" />
    <glyph glyph-name="fraction" unicode="&#x2044;" horiz-adv-x="315" 
d="M-11 0l275 740h62l-275 -740h-62z" />
    <glyph glyph-name="Euro" unicode="&#x20ac;" horiz-adv-x="468" 
d="M259 -8q-79 0 -126 65.5t-58 218.5h-68v51h65q-1 15 -1 45t1 44h-65v51h68q22 281 182 281q69 0 109 -47t57 -146l-58 -10q-14 73 -37.5 109t-69.5 36q-105 0 -120 -223h167v-51h-169q-1 -13 -1 -42q0 -32 1 -47h169v-51h-167q9 -123 39 -175t82 -52q53 0 77.5 37.5
t37.5 117.5l57 -8q-8 -47 -19 -81t-30.5 -63.5t-50 -44.5t-72.5 -15z" />
    <glyph glyph-name="recordright" unicode="&#x2117;" horiz-adv-x="555" 
d="M278 -14q-109 0 -178.5 111t-69.5 273t70 273t178 111q107 0 177 -111t70 -273t-70 -273t-177 -111zM278 23q90 0 148.5 100.5t58.5 246.5q0 145 -58.5 246t-148.5 101t-149.5 -101t-59.5 -246t59.5 -246t149.5 -101zM189 161v417h93q106 0 106 -118q0 -123 -109 -123
h-45v-176h-45zM234 380h47q32 0 47 18.5t15 60.5q0 39 -15 57t-48 18h-46v-154z" />
    <glyph glyph-name="trademark" unicode="&#x2122;" horiz-adv-x="603" 
d="M275 301v439h56l82 -356l84 356h56v-439h-47v303l-72 -303h-43l-72 306v-306h-44zM105 301v390h-86v49h221v-49h-85v-390h-50z" />
    <glyph glyph-name="minus" unicode="&#x2212;" horiz-adv-x="451" 
d="M44 298v56h363v-56h-363z" />
    <glyph glyph-name="radical" unicode="&#x221a;" horiz-adv-x="414" 
d="M148 -3l-128 529h60q100 -426 101 -432h2l153 646h58l-180 -743h-66z" />
    <glyph glyph-name="registered.alt" unicode="&#xe000;" horiz-adv-x="347" 
d="M174 290q-66 0 -109 67t-43 165q0 99 43 166.5t109 67.5q65 0 107.5 -67t42.5 -166t-42.5 -166t-107.5 -67zM174 316q53 0 87.5 60t34.5 146q0 87 -34.5 147t-87.5 60q-54 0 -88.5 -60t-34.5 -146q0 -87 34.5 -147t88.5 -60zM112 398v255h59q66 0 66 -73q0 -56 -37 -72
l43 -109h-36l-39 105h-24v-106h-32zM144 534h25q19 0 27.5 10.5t8.5 34.5q0 43 -36 43h-25v-88z" />
    <glyph glyph-name="fl" unicode="&#xfb02;" horiz-adv-x="429" 
d="M301 0v740h62v-740h-62zM81 0v472h-64v54h64v95q0 119 119 119h24v-55h-22q-59 0 -59 -63v-96h77v-54h-77v-472h-62z" />
    </font>
</defs>
</svg>
