<?xml version="1.0" standalone="no"?>
<!DOCTYPE svg PUBLIC "-//W3C//DTD SVG 1.1//EN" "http://www.w3.org/Graphics/SVG/1.1/DTD/svg11.dtd" >
<svg xmlns="http://www.w3.org/2000/svg" xmlns:xlink="http://www.w3.org/1999/xlink" version="1.1">
<metadata>
Created by FontForge 20170731 at Wed Aug  2 21:03:12 2006
 By Aleksey,,,
Copyright 2000-2003, The Font Bureau, Inc. Designed by Cyrus Highsmith, Tobias Frere-Jones, and Font Bureau. All rights reserved.
</metadata>
<defs>
<font id="BentonSansComp-Light" horiz-adv-x="351" >
  <font-face 
    font-family="BentonSans Comp Light"
    font-weight="400"
    font-stretch="normal"
    units-per-em="1000"
    panose-1="2 0 5 6 3 0 0 2 0 4"
    ascent="800"
    descent="-200"
    x-height="525"
    cap-height="740"
    bbox="-82 -209 877 941"
    underline-thickness="20"
    underline-position="-173"
    unicode-range="U+0020-FB0C"
  />
<missing-glyph horiz-adv-x="780" 
d="M366 0l5 156l-161 -9v42h-43l9 162l-156 -7v50l156 -5l-9 161h43v43l161 -9l-5 156h50l-7 -156l162 9v-43h42l-9 -161l156 5v-50l-156 7l9 -162h-42v-42l-162 9l7 -156h-50zM409 389h168l-8 160l-160 8v-168zM204 389h167v168l-159 -8zM409 184l160 8l8 159h-168v-167z
M371 184v167h-167l8 -159z" />
    <glyph glyph-name="ff" unicode="ff" horiz-adv-x="450" 
d="M84 0v483h-65v42h65v103q0 112 114 112h17v-42h-22q-64 0 -64 -66v-107h173v103q0 112 114 112h17v-42h-22q-64 0 -64 -66v-107h82v-42h-82v-483h-45v483h-173v-483h-45z" />
    <glyph glyph-name="fi" unicode="fi" horiz-adv-x="417" 
d="M301 640v70h47v-70h-47zM84 0v483h-65v42h65v103q0 112 114 112h17v-42h-22q-64 0 -64 -66v-107h82v-42h-82v-483h-45zM302 0v525h45v-525h-45z" />
    <glyph glyph-name="ffi" unicode="ffi" horiz-adv-x="635" 
d="M519 640v70h47v-70h-47zM84 0v483h-65v42h65v103q0 112 114 112h17v-42h-22q-64 0 -64 -66v-107h173v103q0 112 114 112h17v-42h-22q-64 0 -64 -66v-107h82v-42h-82v-483h-45v483h-173v-483h-45zM520 0v525h45v-525h-45z" />
    <glyph glyph-name="ffl" unicode="ffl" horiz-adv-x="635" 
d="M520 0v740h45v-740h-45zM84 0v483h-65v42h65v103q0 112 114 112h17v-42h-22q-64 0 -64 -66v-107h173v103q0 112 114 112h17v-42h-22q-64 0 -64 -66v-107h82v-42h-82v-483h-45v483h-173v-483h-45z" />
    <glyph glyph-name="fj" unicode="fj" horiz-adv-x="417" 
d="M301 640v70h47v-70h-47zM84 0v483h-65v42h65v103q0 112 114 112h17v-42h-22q-64 0 -64 -66v-107h82v-42h-82v-483h-45zM268 -200q-17 0 -19 1v40q3 -1 20 -1q18 0 25.5 13t7.5 43v629h45v-623q0 -58 -19.5 -80t-59.5 -22z" />
    <glyph glyph-name=".notdef" horiz-adv-x="780" 
d="M366 0l5 156l-161 -9v42h-43l9 162l-156 -7v50l156 -5l-9 161h43v43l161 -9l-5 156h50l-7 -156l162 9v-43h42l-9 -161l156 5v-50l-156 7l9 -162h-42v-42l-162 9l7 -156h-50zM409 389h168l-8 160l-160 8v-168zM204 389h167v168l-159 -8zM409 184l160 8l8 159h-168v-167z
M371 184v167h-167l8 -159z" />
    <glyph glyph-name=".null" horiz-adv-x="0" 
 />
    <glyph glyph-name="nonmarkingreturn" horiz-adv-x="333" 
 />
    <glyph glyph-name="space" unicode=" " horiz-adv-x="157" 
 />
    <glyph glyph-name="exclam" unicode="!" horiz-adv-x="225" 
d="M99 194l-12 546h52l-13 -546h-27zM84 0v78h57v-78h-57z" />
    <glyph glyph-name="quotedbl" unicode="&#x22;" horiz-adv-x="301" 
d="M202 493l-11 196v51h48v-51l-11 -196h-26zM74 493l-13 196v51h50v-51l-12 -196h-25z" />
    <glyph glyph-name="numbersign" unicode="#" horiz-adv-x="487" 
d="M84 0l34 225h-84v41h90l30 208h-89v41h96l33 225h42l-33 -225h125l33 225h42l-33 -225h83v-41h-89l-31 -208h89v-41h-95l-33 -225h-42l33 225h-125l-33 -225h-43zM167 266h124l31 208h-126z" />
    <glyph glyph-name="dollar" unicode="$" horiz-adv-x="459" 
d="M204 -1q-55 7 -91 45.5t-65 120.5l41 15q25 -68 50.5 -101t65.5 -40v331q-32 25 -51.5 42.5t-41.5 44.5t-32.5 59t-10.5 70q0 68 38 110t97 47v76h40v-78q51 -7 82.5 -42.5t54.5 -101.5l-40 -15q-37 103 -98 118v-305q38 -29 56.5 -45.5t45 -46.5t38 -65t11.5 -77
q0 -73 -41 -115.5t-109 -47.5v-91h-40v92zM205 703q-43 -4 -67 -35t-24 -79q0 -55 20.5 -89t70.5 -75v278zM243 37q50 4 77.5 35.5t27.5 86.5q0 61 -24 98.5t-81 82.5v-303z" />
    <glyph glyph-name="percent" unicode="%" horiz-adv-x="655" 
d="M157 313q-110 0 -110 215q0 220 112 220q108 0 108 -216q0 -219 -110 -219zM151 0l311 740h42l-310 -740h-43zM498 -8q-110 0 -110 215q0 220 111 220q110 0 110 -216q0 -219 -111 -219zM158 355q65 0 65 175q0 176 -66 176q-65 0 -65 -174q0 -177 66 -177zM499 34
q66 0 66 175q0 176 -67 176q-65 0 -65 -174q0 -177 66 -177z" />
    <glyph glyph-name="ampersand" unicode="&#x26;" horiz-adv-x="502" 
d="M209 399q7 -16 16 -32.5t20 -36.5t17 -31q48 -87 91 -147q36 80 47 221h45q-17 -165 -63 -258q63 -73 106 -73v-46q-67 3 -131 77q-60 -81 -158 -81q-79 0 -123 44.5t-44 129.5q0 38 9 70.5t31 64.5t37 49.5t48 52.5q-43 103 -43 188q0 74 29 116.5t86 42.5
q101 0 101 -129q0 -34 -8.5 -64t-30.5 -60.5t-35.5 -46.5t-46.5 -51zM192 440q46 50 69.5 89.5t23.5 88.5q0 90 -57 90q-68 0 -68 -110q0 -70 32 -158zM329 107q-29 39 -106 170q-2 3 -20.5 34t-28.5 51q-48 -51 -72 -94t-24 -101q0 -61 30 -97.5t93 -36.5q79 0 128 74z" />
    <glyph glyph-name="quotesingle" unicode="'" horiz-adv-x="171" 
d="M74 493l-13 196v51h50v-51l-12 -196h-25z" />
    <glyph glyph-name="parenleft" unicode="(" horiz-adv-x="289" 
d="M224 -203q-176 210 -176 473t176 473l30 -26q-161 -195 -161 -447q0 -250 161 -448z" />
    <glyph glyph-name="parenright" unicode=")" horiz-adv-x="289" 
d="M66 -203l-31 25q161 196 161 448q0 251 -161 447l31 26q176 -210 176 -473t-176 -473z" />
    <glyph glyph-name="asterisk" unicode="*" horiz-adv-x="396" 
d="M132 411l-35 23l86 133l-152 -11v40l152 -10l-86 135l35 22l66 -147l66 147l34 -22l-86 -135l153 10v-40l-153 11l86 -133l-34 -23l-66 147z" />
    <glyph glyph-name="plus" unicode="+" horiz-adv-x="445" 
d="M203 92v211h-157v42h157v210h40v-210h156v-42h-156v-211h-40z" />
    <glyph glyph-name="comma" unicode="," horiz-adv-x="199" 
d="M75 -97l20 97h-25v78h58v-72l-32 -103h-21z" />
    <glyph glyph-name="hyphen" unicode="-" horiz-adv-x="250" 
d="M45 295v42h160v-42h-160z" />
    <glyph glyph-name="period" unicode="." horiz-adv-x="199" 
d="M70 0v78h58v-78h-58z" />
    <glyph glyph-name="slash" unicode="/" horiz-adv-x="379" 
d="M16 0l303 740h44l-303 -740h-44z" />
    <glyph glyph-name="zero" unicode="0" horiz-adv-x="451" 
d="M225 -8q-94 0 -139 91.5t-45 286.5t45 286.5t139 91.5q95 0 139.5 -91t44.5 -287t-44.5 -287t-139.5 -91zM225 34q70 0 104.5 78t34.5 258q0 179 -35.5 257.5t-103.5 78.5q-69 0 -103.5 -78t-34.5 -258q0 -179 35 -257.5t103 -78.5z" />
    <glyph glyph-name="one" unicode="1" horiz-adv-x="311" 
d="M47 0v43h100v642q-47 -34 -98 -34v41q67 3 100 48h43v-697h89v-43h-234z" />
    <glyph glyph-name="two" unicode="2" horiz-adv-x="402" 
d="M36 0v16q0 60 15 110t39 85.5t53 67t58 60.5t53 59.5t39 71t15 88.5q0 148 -104 148q-46 0 -73 -30t-43 -100l-41 9q36 163 159 163q69 0 108 -49t39 -138q0 -68 -28 -125t-67.5 -98t-79 -81t-67.5 -94.5t-28 -119.5h272v-43h-319z" />
    <glyph glyph-name="three" unicode="3" horiz-adv-x="409" 
d="M197 -10q-124 0 -175 146l41 13q39 -117 135 -117q59 0 89.5 45.5t30.5 121.5q0 91 -34.5 132.5t-129.5 41.5h-18v41h22q84 0 116.5 35t32.5 114q0 68 -23.5 106.5t-83.5 38.5q-77 0 -114 -94l-40 17q23 54 63.5 86.5t92.5 32.5q150 0 150 -184q0 -142 -108 -171
q61 -18 89.5 -63t28.5 -131q0 -93 -42.5 -152t-122.5 -59z" />
    <glyph glyph-name="four" unicode="4" horiz-adv-x="419" 
d="M267 0v192h-243v32l237 516h50v-506h89v-42h-89v-192h-44zM74 234h193v423h-1z" />
    <glyph glyph-name="five" unicode="5" horiz-adv-x="404" 
d="M197 -10q-115 0 -165 148l41 14q39 -120 124 -120q66 0 96 61.5t30 151.5q0 97 -28 149t-81 52q-77 0 -118 -97l-39 12l20 379h263l1 -43h-225l-15 -276q34 67 115 67q70 0 111 -58t41 -182q0 -126 -45 -192t-126 -66z" />
    <glyph glyph-name="six" unicode="6" horiz-adv-x="422" 
d="M219 -8q-84 0 -131 89.5t-47 275.5q0 88 8 153t27.5 122.5t58 87.5t95.5 30q37 0 67 -19t42.5 -37t25.5 -44l-39 -20q-36 78 -100 78q-40 0 -68 -24.5t-43 -71t-21.5 -102.5t-6.5 -129q57 79 140 79q160 0 160 -230q0 -108 -42.5 -173t-125.5 -65zM220 34q122 0 122 196
q0 188 -117 188q-82 0 -137 -92q5 -144 36 -218t96 -74z" />
    <glyph glyph-name="seven" unicode="7" horiz-adv-x="387" 
d="M84 0l225 697h-267v43h313v-40l-225 -700h-46z" />
    <glyph glyph-name="eight" unicode="8" horiz-adv-x="421" 
d="M210 -13q-88 0 -133.5 51.5t-45.5 127.5q0 41 11.5 76t35 63t45 46t54.5 42q-60 45 -91 86.5t-31 105.5q0 73 40 121t115 48q78 0 116.5 -48t38.5 -121q0 -62 -31.5 -106t-88.5 -86q35 -25 54 -41.5t43.5 -44.5t35.5 -61.5t11 -75.5q0 -80 -45.5 -131.5t-133.5 -51.5z
M216 417q50 37 77.5 75.5t27.5 92.5q0 55 -26.5 91t-84.5 36q-56 0 -82.5 -35.5t-26.5 -88.5q0 -55 30 -93.5t85 -77.5zM210 29q63 0 98.5 38t35.5 106q0 34 -10 62t-34 53.5t-41 40t-52 40.5q-42 -32 -66 -54t-44.5 -61t-20.5 -85q0 -63 36 -101.5t98 -38.5z" />
    <glyph glyph-name="nine" unicode="9" horiz-adv-x="422" 
d="M192 -10q-37 0 -67 19t-42.5 37t-25.5 44l38 20q38 -78 101 -78q40 0 68 24.5t43 71.5t21.5 102.5t6.5 128.5q-57 -79 -140 -79q-161 0 -161 230q0 107 43 172.5t125 65.5q178 0 178 -365q0 -69 -4.5 -123.5t-16.5 -107t-32.5 -86.5t-54.5 -55t-80 -21zM196 322
q83 0 138 92q-10 292 -132 292t-122 -196q0 -188 116 -188z" />
    <glyph glyph-name="colon" unicode=":" horiz-adv-x="199" 
d="M70 447v78h58v-78h-58zM70 0v78h58v-78h-58z" />
    <glyph glyph-name="semicolon" unicode=";" horiz-adv-x="199" 
d="M70 447v78h58v-78h-58zM75 -97l20 97h-25v78h58v-72l-33 -103h-20z" />
    <glyph glyph-name="less" unicode="&#x3c;" horiz-adv-x="445" 
d="M393 90l-353 215v38l353 215v-45l-311 -189l311 -189v-45z" />
    <glyph glyph-name="equal" unicode="=" horiz-adv-x="445" 
d="M45 418v42h354v-42h-354zM45 190v42h354v-42h-354z" />
    <glyph glyph-name="greater" unicode="&#x3e;" horiz-adv-x="445" 
d="M52 90v45l311 189l-311 189v45l353 -215v-38z" />
    <glyph glyph-name="question" unicode="?" horiz-adv-x="369" 
d="M147 194q0 24 0.5 42.5t3 36t3.5 27.5t7.5 25.5t8 21t12.5 22l14 21t19.5 26.5t21.5 29q47 64 47 139q0 54 -25 88t-76 34q-41 0 -67.5 -27.5t-48.5 -79.5l-38 16q55 133 157 133q73 0 109 -45.5t36 -117.5q0 -49 -15 -85.5t-45 -76.5q-58 -77 -69.5 -111t-11.5 -118h-43
zM139 0v78h57v-78h-57z" />
    <glyph glyph-name="at" unicode="@" horiz-adv-x="609" 
d="M305 -14q-124 0 -197 99t-73 285q0 183 73.5 283.5t196.5 100.5q122 0 195.5 -99.5t73.5 -274.5q0 -112 -30.5 -167.5t-85.5 -55.5q-76 0 -88 76q-51 -76 -110 -76q-52 0 -78 42t-26 119q0 124 39 198.5t107 74.5q56 0 87 -56l5 47h39l-30 -294q-10 -96 55 -96
q79 0 79 188q0 159 -63 250t-169 91q-107 0 -169.5 -91.5t-62.5 -259.5t62.5 -259.5t169.5 -91.5q75 0 145 40l16 -28q-75 -45 -161 -45zM261 195q50 0 101 71l23 222q-34 64 -87 64q-43 0 -71.5 -62t-28.5 -169q1 -126 63 -126z" />
    <glyph glyph-name="A" unicode="A" horiz-adv-x="454" 
d="M130 248l-57 -248h-43l176 743h42l176 -743h-45l-57 248h-192zM312 289l-44 193q-30 129 -41 198h-2q-9 -57 -41 -198l-45 -193h173z" />
    <glyph glyph-name="B" unicode="B" horiz-adv-x="456" 
d="M70 0v740h123q112 0 158 -45t46 -142q0 -77 -29 -115.5t-81 -55.5v-2q57 -10 93 -53.5t36 -126.5q0 -101 -48.5 -150.5t-158.5 -49.5h-139zM116 401h75q84 0 122 36.5t38 113.5q0 78 -34 112t-124 34h-77v-296zM116 43h97q87 0 121.5 38.5t34.5 118.5q0 81 -42 120
t-132 39h-79v-316z" />
    <glyph glyph-name="C" unicode="C" horiz-adv-x="459" 
d="M246 -8q-99 0 -149.5 91.5t-50.5 287.5q0 190 52 283.5t147 93.5q142 0 174 -224l-46 -7q-27 188 -128 188q-77 0 -115.5 -87t-38.5 -246q0 -337 155 -337q58 0 90.5 48.5t46.5 147.5l45 -6q-33 -233 -182 -233z" />
    <glyph glyph-name="D" unicode="D" horiz-adv-x="469" 
d="M70 0v740h114q128 0 184 -87.5t56 -282.5q0 -193 -57 -281.5t-183 -88.5h-114zM116 43h75q99 0 143 80t44 247q0 165 -44.5 246t-143.5 81h-74v-654z" />
    <glyph glyph-name="E" unicode="E" horiz-adv-x="399" 
d="M70 0v740h280v-43h-234v-282h168v-43h-168v-329h249v-43h-295z" />
    <glyph glyph-name="F" unicode="F" horiz-adv-x="379" 
d="M70 0v740h281v-43h-235v-281h169v-44h-169v-372h-46z" />
    <glyph glyph-name="G" unicode="G" horiz-adv-x="481" 
d="M245 -8q-199 0 -199 379q0 193 52.5 286t146.5 93q74 0 116 -56.5t58 -167.5l-45 -7q-27 188 -128 188q-76 0 -115.5 -87t-39.5 -248q0 -337 155 -337q70 0 102.5 64.5t32.5 196.5h-125v43h166v-339h-43v93h-1q-34 -101 -133 -101z" />
    <glyph glyph-name="H" unicode="H" horiz-adv-x="488" 
d="M70 0v740h46v-326h256v326h46v-740h-46v371h-256v-371h-46z" />
    <glyph glyph-name="I" unicode="I" horiz-adv-x="196" 
d="M75 0v740h46v-740h-46z" />
    <glyph glyph-name="J" unicode="J" horiz-adv-x="341" 
d="M143 -8q-77 0 -126 56l32 30q40 -44 94 -44q86 0 86 103v603h46v-593q0 -79 -35.5 -117t-96.5 -38z" />
    <glyph glyph-name="K" unicode="K" horiz-adv-x="441" 
d="M70 0v740h46v-414q12 27 80 146l151 268h47l-165 -292l193 -448h-48l-174 400l-84 -149v-251h-46z" />
    <glyph glyph-name="L" unicode="L" horiz-adv-x="379" 
d="M70 0v740h46v-697h234v-43h-280z" />
    <glyph glyph-name="M" unicode="M" horiz-adv-x="587" 
d="M70 0v740h61l161 -670h2l160 670h63v-740h-44v661h-1q-6 -38 -57 -241l-100 -420h-46l-103 429q-41 158 -53 231h-1v-660h-42z" />
    <glyph glyph-name="N" unicode="N" horiz-adv-x="490" 
d="M70 0v740h57l194 -486q40 -99 56 -146h1v632h42v-740h-41l-214 537q-34 80 -52 135h-1v-672h-42z" />
    <glyph glyph-name="O" unicode="O" horiz-adv-x="494" 
d="M248 -8q-97 0 -149.5 95t-52.5 283t52.5 283t149.5 95q96 0 149.5 -95.5t53.5 -282.5t-53.5 -282.5t-149.5 -95.5zM248 35q76 0 115.5 86.5t39.5 248.5t-39.5 248.5t-115.5 86.5q-77 0 -117 -87t-40 -248t40 -248t117 -87z" />
    <glyph glyph-name="P" unicode="P" horiz-adv-x="429" 
d="M70 0v740h118q108 0 160 -47t52 -151q0 -114 -54 -160.5t-164 -46.5h-66v-335h-46zM116 378h74q88 0 125.5 38t37.5 124q0 83 -37.5 120t-126.5 37h-73v-319z" />
    <glyph glyph-name="Q" unicode="Q" horiz-adv-x="495" 
d="M380 -183q-84 0 -120 43t-36 131q-84 12 -131 104.5t-47 274.5q0 188 52.5 283t149.5 95q96 0 149.5 -95.5t53.5 -282.5q0 -354 -181 -379q1 -75 27.5 -103t82.5 -28h36v-43h-36zM248 30q76 0 115.5 89t39.5 251t-39.5 248.5t-115.5 86.5q-77 0 -117 -87t-40 -248
q0 -162 40.5 -251t116.5 -89z" />
    <glyph glyph-name="R" unicode="R" horiz-adv-x="452" 
d="M276 347l130 -347h-48l-128 338q-24 -2 -40 -2h-74v-336h-46v740h118q110 0 161 -48t51 -150q0 -156 -124 -195zM116 378h79q88 0 123 37.5t35 124.5q0 84 -36 120.5t-128 36.5h-73v-319z" />
    <glyph glyph-name="S" unicode="S" horiz-adv-x="427" 
d="M218 -10q-73 0 -116.5 44t-72.5 137l43 13q22 -76 56 -113.5t91 -37.5q59 0 90 33t31 90q0 45 -29.5 89.5t-71 82t-83 76t-71 88.5t-29.5 104q0 71 42.5 112.5t109.5 41.5q66 0 105.5 -41.5t62.5 -120.5l-43 -13q-20 67 -49 99.5t-77 32.5q-49 0 -76.5 -28.5t-27.5 -79.5
q0 -42 21 -82t52.5 -70t68 -64t68 -65t52.5 -73t21 -87q0 -76 -47 -122t-121 -46z" />
    <glyph glyph-name="T" unicode="T" horiz-adv-x="409" 
d="M181 0v697h-155v43h356v-43h-154v-697h-47z" />
    <glyph glyph-name="U" unicode="U" horiz-adv-x="480" 
d="M241 -8q-50 0 -85 18t-54 52.5t-27 76t-8 96.5v505h45v-493q0 -104 27.5 -158.5t101.5 -54.5q73 0 100.5 53t27.5 158v495h45v-502q0 -116 -39 -181t-134 -65z" />
    <glyph glyph-name="V" unicode="V" horiz-adv-x="442" 
d="M200 -3l-171 743h45l106 -475q31 -139 41 -197h1q10 58 41 196l107 476h44l-172 -743h-42z" />
    <glyph glyph-name="W" unicode="W" horiz-adv-x="644" 
d="M164 0l-132 740h44l86 -518q15 -87 21 -143h2q7 60 21 143l86 518h51l87 -518q14 -85 21 -143h2q7 61 21 141l86 520h41l-132 -740h-40l-111 678h-2l-112 -678h-40z" />
    <glyph glyph-name="X" unicode="X" horiz-adv-x="431" 
d="M24 0l168 400l-143 340h46l123 -296l120 296h45l-143 -343l167 -397h-46l-147 353l-145 -353h-45z" />
    <glyph glyph-name="Y" unicode="Y" horiz-adv-x="400" 
d="M177 0v296l-159 444h46l136 -390h2l136 390h45l-160 -444v-296h-46z" />
    <glyph glyph-name="Z" unicode="Z" horiz-adv-x="411" 
d="M32 0v37l291 660h-269v43h320v-37l-292 -660h292v-43h-342z" />
    <glyph glyph-name="bracketleft" unicode="[" horiz-adv-x="263" 
d="M66 -200v940h161v-41h-116v-858h116v-41h-161z" />
    <glyph glyph-name="backslash" unicode="\" horiz-adv-x="379" 
d="M319 0l-303 740h44l303 -740h-44z" />
    <glyph glyph-name="bracketright" unicode="]" horiz-adv-x="263" 
d="M37 -200v41h116v858h-116v41h161v-940h-161z" />
    <glyph glyph-name="asciicircum" unicode="^" 
d="M71 577l91 156h26l90 -156h-27l-77 92l-75 -92h-28z" />
    <glyph glyph-name="underscore" unicode="_" 
d="M0 -118v42h351v-42h-351z" />
    <glyph glyph-name="grave" unicode="`" 
d="M190 582l-97 151h60l66 -151h-29z" />
    <glyph glyph-name="a" unicode="a" horiz-adv-x="375" 
d="M137 -4q-49 0 -74.5 34.5t-25.5 91.5q0 72 57.5 133t177.5 94v49q0 94 -70 94q-64 0 -121 -77l-34 26q69 92 157 92q60 0 86 -34.5t26 -104.5v-264q0 -93 11 -130h-46q-9 40 -9 66q-60 -70 -135 -70zM149 37q61 0 123 75v194q-101 -26 -146.5 -76.5t-45.5 -106.5
q0 -86 69 -86z" />
    <glyph glyph-name="b" unicode="b" horiz-adv-x="404" 
d="M219 -5q-66 0 -115 73v-68h-44v740h44v-279q53 72 116 72q145 0 145 -268q0 -270 -146 -270zM216 37q104 0 104 227t-105 227q-22 0 -44 -13t-35 -26.5t-32 -36.5v-298q56 -80 112 -80z" />
    <glyph glyph-name="c" unicode="c" horiz-adv-x="359" 
d="M191 -8q-72 0 -112 69.5t-40 200.5q0 135 40.5 203t114.5 68q57 0 87 -37.5t48 -112.5l-41 -11q-16 62 -36 90.5t-60 28.5q-50 0 -79 -60t-29 -168q0 -104 27.5 -166.5t82.5 -62.5q39 0 59.5 28t36.5 92l41 -10q-19 -79 -52.5 -115.5t-87.5 -36.5z" />
    <glyph glyph-name="d" unicode="d" horiz-adv-x="404" 
d="M185 -5q-145 0 -145 269t146 269q66 0 115 -73v280h44v-610q0 -93 11 -130h-47q-8 38 -8 67q-53 -72 -116 -72zM190 37q32 0 56.5 19.5t54.5 55.5v299q-59 80 -112 80q-104 0 -104 -226q0 -228 105 -228z" />
    <glyph glyph-name="e" unicode="e" horiz-adv-x="378" 
d="M192 -8q-73 0 -113 68.5t-40 201.5q0 135 41 203t115 68q75 0 109.5 -75t34.5 -191v-6h-255q0 -227 111 -227q42 0 65.5 27.5t36.5 81.5l40 -9q-35 -142 -145 -142zM84 300h209q-2 84 -26.5 137.5t-72.5 53.5q-97 0 -110 -191z" />
    <glyph glyph-name="f" unicode="f" horiz-adv-x="232" 
d="M84 0v483h-65v42h65v103q0 112 114 112h17v-42h-22q-64 0 -64 -66v-107h82v-42h-82v-483h-45z" />
    <glyph glyph-name="g" unicode="g" horiz-adv-x="393" 
d="M287 480q36 36 81 46v-51q-36 0 -67 -17q24 -50 24 -113q0 -87 -39 -136.5t-103 -49.5q-32 0 -56 12q-30 -21 -30 -49q0 -17 11 -26.5t39 -14.5l87 -16q120 -23 120 -126q0 -65 -47.5 -102t-127.5 -37q-78 0 -119 35t-41 97q0 81 72 124q-35 18 -35 63q0 38 41 72
q-55 52 -55 154q0 85 39 136.5t102 51.5q65 0 104 -53zM183 201q47 0 72 38.5t25 105.5q0 146 -97 146q-46 0 -71 -39t-25 -107q0 -67 25 -105.5t71 -38.5zM130 42q-66 -33 -66 -106q0 -95 116 -95q63 0 96.5 26t33.5 69q0 37 -20.5 59t-72.5 31z" />
    <glyph glyph-name="h" unicode="h" horiz-adv-x="402" 
d="M60 0v740h44v-285q67 78 139 78q53 0 77.5 -32.5t24.5 -102.5v-398h-44v393q0 50 -14.5 74t-50.5 24q-30 0 -66 -24t-66 -55v-412h-44z" />
    <glyph glyph-name="i" unicode="i" horiz-adv-x="175" 
d="M64 640v70h47v-70h-47zM65 0v525h45v-525h-45z" />
    <glyph glyph-name="j" unicode="j" horiz-adv-x="175" 
d="M64 640v70h47v-70h-47zM31 -200q-17 0 -19 1v40q3 -1 20 -1q18 0 25.5 13t7.5 43v629h45v-623q0 -58 -19.5 -80t-59.5 -22z" />
    <glyph glyph-name="k" unicode="k" horiz-adv-x="362" 
d="M60 0v740h44v-518q16 31 66 120l105 183h45l-115 -196l134 -329h-45l-116 282l-74 -127v-155h-44z" />
    <glyph glyph-name="l" unicode="l" horiz-adv-x="175" 
d="M65 0v740h45v-740h-45z" />
    <glyph glyph-name="m" unicode="m" horiz-adv-x="625" 
d="M60 0v525h44v-70q69 78 133 78q77 0 95 -80q68 80 137 80q52 0 76 -32t24 -103v-398h-45v393q0 51 -13.5 74.5t-49.5 23.5q-53 0 -125 -79v-412h-44v393q0 52 -13.5 76.5t-49.5 24.5q-30 0 -58.5 -21t-66.5 -61v-412h-44z" />
    <glyph glyph-name="n" unicode="n" horiz-adv-x="402" 
d="M60 0v525h44v-70q67 78 139 78q53 0 77.5 -32.5t24.5 -102.5v-398h-44v393q0 50 -14.5 74t-50.5 24q-30 0 -66 -24t-66 -55v-412h-44z" />
    <glyph glyph-name="o" unicode="o" horiz-adv-x="393" 
d="M197 -8q-76 0 -117 69.5t-41 200.5q0 133 40.5 202t117.5 69q76 0 116.5 -69t40.5 -202q0 -132 -40.5 -201t-116.5 -69zM197 34q57 0 84.5 61.5t27.5 167.5q0 101 -26.5 164.5t-85.5 63.5q-57 0 -85 -62t-28 -166q0 -66 10 -115t36 -81.5t67 -32.5z" />
    <glyph glyph-name="p" unicode="p" horiz-adv-x="404" 
d="M60 -200v725h44v-64q53 72 116 72q145 0 145 -268q0 -270 -146 -270q-66 0 -115 73v-268h-44zM216 37q104 0 104 227t-105 227q-22 0 -44 -13t-35 -26.5t-32 -36.5v-298q56 -80 112 -80z" />
    <glyph glyph-name="q" unicode="q" horiz-adv-x="404" 
d="M300 -200v267q-53 -72 -115 -72q-145 0 -145 269t146 269q65 0 114 -73v65h44v-725h-44zM190 37q32 0 56 19t54 56v299q-59 80 -111 80q-104 0 -104 -226q0 -228 105 -228z" />
    <glyph glyph-name="r" unicode="r" horiz-adv-x="274" 
d="M60 0v525h44v-90h2q22 44 57.5 71t81.5 27h10l-6 -45h-12q-42 0 -78 -34.5t-55 -84.5v-369h-44z" />
    <glyph glyph-name="s" unicode="s" horiz-adv-x="344" 
d="M171 -11q-106 0 -152 123l42 16q36 -97 110 -97q46 0 69.5 23t23.5 60q0 35 -22.5 65t-55 53t-65 47.5t-55 60t-22.5 78.5q0 51 37 84t89 33q98 0 135 -118l-44 -12q-11 39 -34.5 63.5t-57.5 24.5q-36 0 -58 -20.5t-22 -53.5q0 -30 16.5 -56t40.5 -44.5t53 -41t53 -43
t40.5 -52t16.5 -67.5q0 -55 -37.5 -90.5t-100.5 -35.5z" />
    <glyph glyph-name="t" unicode="t" horiz-adv-x="259" 
d="M186 -4q-54 0 -78.5 24t-24.5 87v376h-65v42h65v191h45v-191h96v-42h-96v-370q0 -41 13 -58.5t47 -17.5q22 0 38 8v-43q-24 -6 -40 -6z" />
    <glyph glyph-name="u" unicode="u" horiz-adv-x="399" 
d="M159 -7q-53 0 -77.5 32.5t-24.5 102.5v397h44v-392q0 -50 14.5 -74t50.5 -24q55 0 129 79v411h44v-525h-44v71q-67 -78 -136 -78z" />
    <glyph glyph-name="v" unicode="v" horiz-adv-x="353" 
d="M154 -3l-130 528h43l84 -359q17 -68 25 -120h2q11 61 25 119l84 360h42l-130 -528h-45z" />
    <glyph glyph-name="w" unicode="w" horiz-adv-x="516" 
d="M137 0l-113 525h42l67 -326q9 -45 21 -121h2q16 107 20 125l62 322h42l62 -322q3 -13 20 -127h2q7 48 22 122l66 327h40l-113 -525h-35l-85 445h-2l-85 -445h-35z" />
    <glyph glyph-name="x" unicode="x" 
d="M23 0l129 275l-117 250h46l96 -210l95 210h44l-117 -252l128 -273h-46l-107 233l-106 -233h-45z" />
    <glyph glyph-name="y" unicode="y" horiz-adv-x="364" 
d="M60 -200q-30 0 -53 10l12 37q17 -7 46 -7q30 0 46.5 24.5t31.5 83.5l18 64l-137 513h43l83 -316q21 -78 31 -133h2q14 69 31 132l84 317h42l-157 -587q-20 -77 -45.5 -107.5t-77.5 -30.5z" />
    <glyph glyph-name="z" unicode="z" horiz-adv-x="337" 
d="M31 0v34l215 449h-196v42h246v-33l-216 -450h224v-42h-273z" />
    <glyph glyph-name="braceleft" unicode="{" horiz-adv-x="255" 
d="M205 -200q-55 0 -78 32.5t-23 100.5v198q0 71 -18 96t-60 25v36q42 0 60 25t18 96v198q0 67 24 100t77 33h30v-41h-31q-55 0 -55 -74v-215q0 -68 -15 -95.5t-47 -43.5v-2q32 -16 47 -43.5t15 -95.5v-215q0 -74 55 -74h31v-41h-30z" />
    <glyph glyph-name="bar" unicode="|" horiz-adv-x="246" 
d="M102 -200v940h42v-940h-42z" />
    <glyph glyph-name="braceright" unicode="}" horiz-adv-x="255" 
d="M20 -200v39h31q55 0 55 76v215q0 68 15 95.5t47 43.5v2q-32 16 -47 43.5t-15 95.5v215q0 76 -55 76h-31v39h30q55 0 78 -32.5t23 -100.5v-198q0 -71 18 -96t60 -25v-36q-42 0 -60 -25t-18 -96v-198q0 -67 -24 -100t-77 -33h-30z" />
    <glyph glyph-name="asciitilde" unicode="~" 
d="M230 424q-24 0 -61 28t-49 28q-15 0 -21 -12t-6 -42h-36q0 98 64 98q23 0 59 -28t50 -28t20 11t6 43h36q0 -98 -62 -98z" />
    <glyph glyph-name="nbspace" unicode="&#xa0;" horiz-adv-x="78" 
 />
    <glyph glyph-name="exclamdown" unicode="&#xa1;" horiz-adv-x="225" 
d="M84 662v78h57v-78h-57zM87 0l12 546h27l13 -546h-52z" />
    <glyph glyph-name="cent" unicode="&#xa2;" horiz-adv-x="359" 
d="M169 -9q-62 11 -96 80.5t-34 190.5q0 122 34 191.5t96 80.5v104h39v-103q50 -4 76.5 -41t44.5 -108l-41 -11q-15 56 -32 84.5t-49 34.5v-463q32 4 50 33t33 87l41 -10q-17 -73 -46.5 -109.5t-76.5 -41.5v-119h-39v120zM170 492q-40 -14 -63 -74t-23 -155
q0 -92 21.5 -153.5t64.5 -75.5v458z" />
    <glyph glyph-name="sterling" unicode="&#xa3;" horiz-adv-x="412" 
d="M150 376h-90v40h76q-44 122 -44 173q0 77 37 119t98 42q126 0 132 -183l-43 -2q-7 143 -91 143q-41 0 -64.5 -29.5t-23.5 -88.5q0 -42 44 -174h125v-40h-111q36 -110 36 -176t-15 -110q45 -56 76 -56q62 0 62 147h42q0 -189 -106 -189q-46 0 -92 57q-35 -57 -100 -57
q-39 0 -64 24.5t-25 64.5q0 43 24 70t67 27q41 0 83 -47q5 32 5 69q0 64 -38 176zM171 85q-15 18 -23.5 27t-22 17.5t-27.5 8.5q-20 0 -33 -14t-13 -41q0 -22 14 -36.5t33 -14.5q50 0 72 53z" />
    <glyph glyph-name="currency" unicode="&#xa4;" horiz-adv-x="457" 
d="M252 -8q-158 0 -177 291h-69v40h67q-1 16 -1 50q0 33 1 49h-67v40h69q21 286 175 286q63 0 101 -44.5t57 -138.5l-43 -10q-15 73 -40.5 111t-73.5 38q-113 0 -129 -242h176v-40h-178q-1 -15 -1 -47q0 -35 1 -52h178v-40h-176q16 -247 130 -247q56 0 82 39.5t41 120.5
l42 -8q-18 -94 -55 -145t-110 -51z" />
    <glyph glyph-name="yen" unicode="&#xa5;" horiz-adv-x="400" 
d="M177 0v127h-131v40h131v99h-131v40h127l-155 434h46l136 -381h2l136 381h45l-157 -434h127v-40h-130v-99h130v-40h-130v-127h-46z" />
    <glyph glyph-name="brokenbar" unicode="&#xa6;" horiz-adv-x="246" 
d="M102 331v409h42v-409h-42zM102 -200v409h42v-409h-42z" />
    <glyph glyph-name="section" unicode="&#xa7;" horiz-adv-x="371" 
d="M137 456q-72 70 -72 150q0 67 36 107.5t93 40.5q67 0 96.5 -42t41.5 -123l-44 -9q-11 67 -31.5 99t-63.5 32q-39 0 -60.5 -28.5t-21.5 -74.5t25 -80t80 -82q38 -33 53 -47t36.5 -40t28.5 -50t7 -56q0 -49 -30.5 -93t-76.5 -71q70 -70 70 -150q0 -68 -34.5 -108t-92.5 -40
q-64 0 -94 42.5t-42 122.5l44 9q11 -66 31.5 -98.5t61.5 -32.5q39 0 59.5 28t20.5 75t-24.5 81t-78.5 81q-38 33 -53 47t-36.5 40t-28.5 50t-7 56q0 49 30.5 93t76.5 71zM203 117q92 56 92 135q0 31 -15 58.5t-33 46t-60 54.5q-14 12 -19 17q-92 -56 -92 -135
q0 -31 15 -58.5t33 -46t60 -54.5q14 -12 19 -17z" />
    <glyph glyph-name="dieresis" unicode="&#xa8;" 
d="M206 582v65h54v-65h-54zM90 582v65h53v-65h-53z" />
    <glyph glyph-name="copyright" unicode="&#xa9;" horiz-adv-x="549" 
d="M275 -14q-106 0 -174.5 111.5t-68.5 272.5t68.5 272.5t174.5 111.5q105 0 173.5 -111.5t68.5 -272.5t-68.5 -272.5t-173.5 -111.5zM275 18q90 0 149.5 103t59.5 249t-59.5 249t-149.5 103t-150 -103t-60 -249t60 -249t150 -103zM275 161q-116 0 -116 216q0 108 30 162
t85 54q85 0 102 -133l-36 -4q-15 102 -66 102q-78 0 -78 -180q0 -183 79 -183q30 0 46.5 26.5t24.5 82.5l35 -5q-19 -138 -106 -138z" />
    <glyph glyph-name="ordfeminine" unicode="&#xaa;" horiz-adv-x="280" 
d="M107 367q-36 0 -54.5 24.5t-18.5 66.5q0 55 41 98.5t124 65.5v34q0 62 -45 62q-27 0 -45.5 -14t-35.5 -42l-32 17q43 75 114 75q83 0 83 -100v-186q0 -64 9 -94l-41 1q-5 26 -6 40q-44 -48 -93 -48zM116 403q39 0 83 52v131q-126 -35 -126 -127q0 -56 43 -56z" />
    <glyph glyph-name="guillemotleft" unicode="&#xab;" horiz-adv-x="329" 
d="M254 0l-92 263l92 262h45l-91 -262l91 -263h-45zM123 0l-91 263l91 262h45l-90 -262l90 -263h-45z" />
    <glyph glyph-name="registered" unicode="&#xae;" horiz-adv-x="549" 
d="M275 -14q-106 0 -174.5 111.5t-68.5 272.5t68.5 272.5t174.5 111.5q105 0 173.5 -111.5t68.5 -272.5t-68.5 -272.5t-173.5 -111.5zM275 18q90 0 149.5 103t59.5 249t-59.5 249t-149.5 103t-150 -103t-60 -249t60 -249t150 -103zM179 166v417h90q103 0 103 -114
q0 -92 -65 -113l72 -190h-41l-69 184h-53v-184h-37zM216 384h51q36 0 52 19.5t16 63.5q0 42 -16 61.5t-52 19.5h-51v-164z" />
    <glyph glyph-name="macron" unicode="&#xaf;" 
d="M81 624v44h188v-44h-188z" />
    <glyph glyph-name="degree" unicode="&#xb0;" horiz-adv-x="281" 
d="M141 484q-45 0 -70.5 37.5t-25.5 97.5t25.5 97.5t70.5 37.5q44 0 69.5 -37.5t25.5 -97.5t-25.5 -97.5t-69.5 -37.5zM141 521q26 0 40.5 27t14.5 71t-14.5 71.5t-40.5 27.5q-27 0 -41 -27t-14 -72q0 -44 14 -71t41 -27z" />
    <glyph glyph-name="twosuperior" unicode="&#xb2;" horiz-adv-x="264" 
d="M25 287v17q0 49 17.5 88t42.5 65t49.5 50t42 55.5t17.5 70.5q0 80 -57 80q-27 0 -41.5 -17.5t-24.5 -61.5l-40 9q23 111 107 111q46 0 72.5 -31t26.5 -88q0 -40 -16.5 -74t-41 -59t-48.5 -49.5t-42 -56t-20 -68.5h169v-41h-213z" />
    <glyph glyph-name="threesuperior" unicode="&#xb3;" horiz-adv-x="274" 
d="M133 279q-43 0 -70 24t-45 77l40 13q22 -73 75 -73q64 0 64 92q0 51 -19 75t-72 24h-18v40h21q46 0 63.5 20t17.5 64q0 79 -56 79q-41 0 -64 -59l-37 17q33 82 103 82q97 0 97 -117q0 -80 -52 -105q58 -27 58 -119q0 -59 -27.5 -96.5t-78.5 -37.5z" />
    <glyph glyph-name="acute" unicode="&#xb4;" 
d="M132 582l67 151h60l-97 -151h-30z" />
    <glyph glyph-name="mu" unicode="&#xb5;" horiz-adv-x="402" 
d="M60 -200v725h44v-396q0 -50 14.5 -74t50.5 -24q55 0 129 79v415h44v-525h-44v67q-65 -76 -136 -76q-45 0 -58 29v-220h-44z" />
    <glyph glyph-name="paragraph" unicode="&#xb6;" horiz-adv-x="423" 
d="M197 -200v543q-155 5 -155 197q0 89 38.5 144.5t107.5 55.5h165v-940h-45v897h-67v-897h-44z" />
    <glyph glyph-name="periodcentered" unicode="&#xb7;" horiz-adv-x="264" 
d="M100 275v78h65v-78h-65z" />
    <glyph glyph-name="cedilla" unicode="&#xb8;" 
d="M187 -193q-51 0 -89 38l19 24q37 -30 70 -30q51 0 51 49q0 37 -31 37q-19 0 -37 -20l-25 12l17 83h34l-11 -55q14 14 36 14q23 0 40.5 -16.5t17.5 -50.5q0 -45 -26.5 -65t-65.5 -20z" />
    <glyph glyph-name="onesuperior" unicode="&#xb9;" horiz-adv-x="262" 
d="M58 282v41h60v362q-28 -14 -59 -14v40q44 2 63 29h38v-417h54v-41h-156z" />
    <glyph glyph-name="ordmasculine" unicode="&#xba;" horiz-adv-x="286" 
d="M143 367q-54 0 -84 50t-30 143q0 94 29.5 144t84.5 50t85 -50t30 -144q0 -93 -30 -143t-85 -50zM143 403q75 0 75 158q0 157 -75 157q-38 0 -56.5 -43t-18.5 -114q0 -158 75 -158z" />
    <glyph glyph-name="guillemotright" unicode="&#xbb;" horiz-adv-x="329" 
d="M161 0l90 262l-90 263h45l90 -263l-90 -262h-45zM30 0l91 262l-91 263h45l92 -263l-92 -262h-45z" />
    <glyph glyph-name="onequarter" unicode="&#xbc;" horiz-adv-x="631" 
d="M58 282v41h60v362q-28 -14 -59 -14v40q44 2 63 29h38v-417h54v-41h-156zM152 0l311 740h44l-310 -740h-45zM502 0v115h-146v29l145 314h43v-303h53v-40h-53v-115h-42zM404 155h98v213h-1z" />
    <glyph glyph-name="onehalf" unicode="&#xbd;" horiz-adv-x="668" 
d="M58 282v41h60v362q-28 -14 -59 -14v40q44 2 63 29h38v-417h54v-41h-156zM152 0l311 740h44l-310 -740h-45zM411 0v17q0 49 17.5 88t42 65t49.5 50t42.5 55.5t17.5 70.5q0 80 -57 80q-27 0 -41.5 -17.5t-24.5 -61.5l-40 9q23 111 107 111q46 0 72.5 -31t26.5 -88
q0 -40 -16.5 -74t-41 -59t-48.5 -49.5t-42 -56t-20 -68.5h169v-41h-213z" />
    <glyph glyph-name="threequarters" unicode="&#xbe;" horiz-adv-x="638" 
d="M133 279q-43 0 -70 24t-45 77l40 13q22 -73 75 -73q64 0 64 92q0 51 -19 75t-72 24h-18v40h21q46 0 63.5 20t17.5 64q0 79 -56 79q-41 0 -64 -59l-37 17q33 82 103 82q97 0 97 -117q0 -80 -52 -105q58 -27 58 -119q0 -59 -27.5 -96.5t-78.5 -37.5zM159 0l311 740h44
l-310 -740h-45zM509 0v115h-146v29l145 314h43v-303h53v-40h-53v-115h-42zM411 155h98v213h-1z" />
    <glyph glyph-name="questiondown" unicode="&#xbf;" horiz-adv-x="369" 
d="M173 662v78h57v-78h-57zM183 -8q-73 0 -109 45.5t-36 117.5q0 49 15 85.5t45 76.5q58 77 69.5 111t11.5 118h43q0 -24 -0.5 -42.5t-3 -36t-3.5 -27.5t-7.5 -25.5t-8 -21t-12.5 -22l-14 -21t-19.5 -26.5t-21.5 -29q-47 -64 -47 -139q0 -54 25 -88t76 -34q41 0 67.5 27.5
t48.5 79.5l38 -16q-55 -133 -157 -133z" />
    <glyph glyph-name="Agrave" unicode="&#xc0;" horiz-adv-x="454" 
d="M130 248l-57 -248h-43l176 743h42l176 -743h-45l-57 248h-192zM312 289l-44 193q-30 129 -41 198h-2q-9 -57 -41 -198l-45 -193h173zM221 787l-97 151h60l66 -151h-29z" />
    <glyph glyph-name="Aacute" unicode="&#xc1;" horiz-adv-x="454" 
d="M130 248l-57 -248h-43l176 743h42l176 -743h-45l-57 248h-192zM312 289l-44 193q-30 129 -41 198h-2q-9 -57 -41 -198l-45 -193h173zM203 787l67 151h60l-97 -151h-30z" />
    <glyph glyph-name="Acircumflex" unicode="&#xc2;" horiz-adv-x="454" 
d="M130 248l-57 -248h-43l176 743h42l176 -743h-45l-57 248h-192zM312 289l-44 193q-30 129 -41 198h-2q-9 -57 -41 -198l-45 -193h173zM120 782l91 156h30l90 -156h-31l-75 95l-73 -95h-32z" />
    <glyph glyph-name="Atilde" unicode="&#xc3;" horiz-adv-x="454" 
d="M130 248l-57 -248h-43l176 743h42l176 -743h-45l-57 248h-192zM312 289l-44 193q-30 129 -41 198h-2q-9 -57 -41 -198l-45 -193h173zM281 785q-24 0 -61 28t-49 28q-15 0 -21 -12t-6 -42h-36q0 98 64 98q23 0 59 -28t50 -28t20 11t6 43h36q0 -98 -62 -98z" />
    <glyph glyph-name="Adieresis" unicode="&#xc4;" horiz-adv-x="454" 
d="M130 248l-57 -248h-43l176 743h42l176 -743h-45l-57 248h-192zM312 289l-44 193q-30 129 -41 198h-2q-9 -57 -41 -198l-45 -193h173zM257 787v65h54v-65h-54zM141 787v65h53v-65h-53z" />
    <glyph glyph-name="Aring" unicode="&#xc5;" horiz-adv-x="454" 
d="M130 248l-57 -248h-43l169 714q-44 20 -44 92q0 42 18.5 68.5t51.5 26.5q32 0 52 -27t20 -68q0 -70 -43 -91l170 -715h-45l-57 248h-192zM225 745q18 0 27 17.5t9 43.5q0 25 -9 42t-27 17q-34 0 -34 -59q0 -61 34 -61zM312 289l-44 193q-30 129 -41 198h-2
q-9 -57 -41 -198l-45 -193h173z" />
    <glyph glyph-name="AE" unicode="&#xc6;" horiz-adv-x="634" 
d="M17 0l258 740h310v-43h-234v-282h168v-43h-168v-329h249v-43h-294v248h-157l-85 -248h-47zM163 290h143v409h-2z" />
    <glyph glyph-name="Ccedilla" unicode="&#xc7;" horiz-adv-x="459" 
d="M214 -5q-168 29 -168 376q0 377 199 377q142 0 174 -224l-46 -7q-27 188 -128 188q-77 0 -115.5 -87t-38.5 -246q0 -337 155 -337q58 0 90.5 48.5t46.5 147.5l45 -6q-33 -232 -181 -233l-8 -47q14 14 36 14q23 0 40.5 -16.5t17.5 -50.5q0 -45 -26.5 -65t-65.5 -20
q-51 0 -89 38l19 24q37 -30 70 -30q51 0 51 49q0 37 -31 37q-19 0 -37 -20l-25 12z" />
    <glyph glyph-name="Egrave" unicode="&#xc8;" horiz-adv-x="399" 
d="M70 0v740h280v-43h-234v-282h168v-43h-168v-329h249v-43h-295zM214 787l-97 151h60l66 -151h-29z" />
    <glyph glyph-name="Eacute" unicode="&#xc9;" horiz-adv-x="399" 
d="M70 0v740h280v-43h-234v-282h168v-43h-168v-329h249v-43h-295zM156 787l67 151h60l-97 -151h-30z" />
    <glyph glyph-name="Ecircumflex" unicode="&#xca;" horiz-adv-x="399" 
d="M70 0v740h280v-43h-234v-282h168v-43h-168v-329h249v-43h-295zM93 782l91 156h30l90 -156h-31l-75 95l-73 -95h-32z" />
    <glyph glyph-name="Edieresis" unicode="&#xcb;" horiz-adv-x="399" 
d="M70 0v740h280v-43h-234v-282h168v-43h-168v-329h249v-43h-295zM230 787v65h54v-65h-54zM114 787v65h53v-65h-53z" />
    <glyph glyph-name="Igrave" unicode="&#xcc;" horiz-adv-x="196" 
d="M75 0v740h46v-740h-46zM83 788l-97 151h60l66 -151h-29z" />
    <glyph glyph-name="Iacute" unicode="&#xcd;" horiz-adv-x="196" 
d="M75 0v740h46v-740h-46zM84 788l67 151h60l-97 -151h-30z" />
    <glyph glyph-name="Icircumflex" unicode="&#xce;" horiz-adv-x="196" 
d="M75 0v740h46v-740h-46zM-8 783l91 156h30l90 -156h-31l-75 95l-73 -95h-32z" />
    <glyph glyph-name="Idieresis" unicode="&#xcf;" horiz-adv-x="196" 
d="M75 0v740h46v-740h-46zM129 788v65h54v-65h-54zM13 788v65h53v-65h-53z" />
    <glyph glyph-name="Eth" unicode="&#xd0;" horiz-adv-x="470" 
d="M69 0v371h-56v45h56v324h116q128 0 184.5 -87.5t56.5 -282.5q0 -193 -57.5 -281.5t-183.5 -88.5h-116zM118 45h74q98 0 141.5 79.5t43.5 245.5q0 164 -44 244.5t-142 80.5h-73v-279h103v-45h-103v-326z" />
    <glyph glyph-name="Ntilde" unicode="&#xd1;" horiz-adv-x="490" 
d="M70 0v740h57l194 -486q40 -99 56 -146h1v632h42v-740h-41l-214 537q-34 80 -52 135h-1v-672h-42zM299 785q-24 0 -61 28t-49 28q-15 0 -21 -12t-6 -42h-36q0 98 64 98q23 0 59 -28t50 -28t20 11t6 43h36q0 -98 -62 -98z" />
    <glyph glyph-name="Ograve" unicode="&#xd2;" horiz-adv-x="494" 
d="M248 -8q-97 0 -149.5 95t-52.5 283t52.5 283t149.5 95q96 0 149.5 -95.5t53.5 -282.5t-53.5 -282.5t-149.5 -95.5zM248 35q76 0 115.5 86.5t39.5 248.5t-39.5 248.5t-115.5 86.5q-77 0 -117 -87t-40 -248t40 -248t117 -87zM261 787l-97 151h60l66 -151h-29z" />
    <glyph glyph-name="Oacute" unicode="&#xd3;" horiz-adv-x="494" 
d="M248 -8q-97 0 -149.5 95t-52.5 283t52.5 283t149.5 95q96 0 149.5 -95.5t53.5 -282.5t-53.5 -282.5t-149.5 -95.5zM248 35q76 0 115.5 86.5t39.5 248.5t-39.5 248.5t-115.5 86.5q-77 0 -117 -87t-40 -248t40 -248t117 -87zM203 787l67 151h60l-97 -151h-30z" />
    <glyph glyph-name="Ocircumflex" unicode="&#xd4;" horiz-adv-x="494" 
d="M248 -8q-97 0 -149.5 95t-52.5 283t52.5 283t149.5 95q96 0 149.5 -95.5t53.5 -282.5t-53.5 -282.5t-149.5 -95.5zM248 35q76 0 115.5 86.5t39.5 248.5t-39.5 248.5t-115.5 86.5q-77 0 -117 -87t-40 -248t40 -248t117 -87zM140 782l91 156h30l90 -156h-31l-75 95l-73 -95
h-32z" />
    <glyph glyph-name="Otilde" unicode="&#xd5;" horiz-adv-x="494" 
d="M248 -8q-97 0 -149.5 95t-52.5 283t52.5 283t149.5 95q96 0 149.5 -95.5t53.5 -282.5t-53.5 -282.5t-149.5 -95.5zM248 35q76 0 115.5 86.5t39.5 248.5t-39.5 248.5t-115.5 86.5q-77 0 -117 -87t-40 -248t40 -248t117 -87zM301 785q-24 0 -61 28t-49 28q-15 0 -21 -12
t-6 -42h-36q0 98 64 98q23 0 59 -28t50 -28t20 11t6 43h36q0 -98 -62 -98z" />
    <glyph glyph-name="Odieresis" unicode="&#xd6;" horiz-adv-x="494" 
d="M248 -8q-97 0 -149.5 95t-52.5 283t52.5 283t149.5 95q96 0 149.5 -95.5t53.5 -282.5t-53.5 -282.5t-149.5 -95.5zM248 35q76 0 115.5 86.5t39.5 248.5t-39.5 248.5t-115.5 86.5q-77 0 -117 -87t-40 -248t40 -248t117 -87zM277 787v65h54v-65h-54zM161 787v65h53v-65h-53
z" />
    <glyph glyph-name="multiply" unicode="&#xd7;" horiz-adv-x="445" 
d="M252 323l150 -150l-28 -28l-150 150l-150 -150l-28 28l150 150l-150 149l29 28l149 -149l149 149l28 -28z" />
    <glyph glyph-name="Oslash" unicode="&#xd8;" horiz-adv-x="494" 
d="M409 629q42 -95 42 -259q0 -187 -53.5 -282.5t-149.5 -95.5q-88 0 -140 79l-52 -97l-36 18l66 122q-40 94 -40 256q0 188 52.5 283t149.5 95q86 0 138 -77l51 95l36 -18zM115 164l247 458q-40 83 -114 83q-77 0 -117 -87t-40 -248q0 -125 24 -206zM379 577l-247 -457
q40 -85 116 -85t115.5 86.5t39.5 248.5q0 126 -24 207z" />
    <glyph glyph-name="Ugrave" unicode="&#xd9;" horiz-adv-x="480" 
d="M241 -8q-50 0 -85 18t-54 52.5t-27 76t-8 96.5v505h45v-493q0 -104 27.5 -158.5t101.5 -54.5q73 0 100.5 53t27.5 158v495h45v-502q0 -116 -39 -181t-134 -65zM254 787l-97 151h60l66 -151h-29z" />
    <glyph glyph-name="Uacute" unicode="&#xda;" horiz-adv-x="480" 
d="M241 -8q-50 0 -85 18t-54 52.5t-27 76t-8 96.5v505h45v-493q0 -104 27.5 -158.5t101.5 -54.5q73 0 100.5 53t27.5 158v495h45v-502q0 -116 -39 -181t-134 -65zM196 787l67 151h60l-97 -151h-30z" />
    <glyph glyph-name="Ucircumflex" unicode="&#xdb;" horiz-adv-x="480" 
d="M241 -8q-50 0 -85 18t-54 52.5t-27 76t-8 96.5v505h45v-493q0 -104 27.5 -158.5t101.5 -54.5q73 0 100.5 53t27.5 158v495h45v-502q0 -116 -39 -181t-134 -65zM133 782l91 156h30l90 -156h-31l-75 95l-73 -95h-32z" />
    <glyph glyph-name="Udieresis" unicode="&#xdc;" horiz-adv-x="480" 
d="M241 -8q-50 0 -85 18t-54 52.5t-27 76t-8 96.5v505h45v-493q0 -104 27.5 -158.5t101.5 -54.5q73 0 100.5 53t27.5 158v495h45v-502q0 -116 -39 -181t-134 -65zM270 787v65h54v-65h-54zM154 787v65h53v-65h-53z" />
    <glyph glyph-name="Yacute" unicode="&#xdd;" horiz-adv-x="400" 
d="M177 0v296l-159 444h46l136 -390h2l136 390h45l-160 -444v-296h-46zM157 787l67 151h60l-97 -151h-30z" />
    <glyph glyph-name="Thorn" unicode="&#xde;" horiz-adv-x="430" 
d="M69 0v740h49v-139h105q178 0 178 -199q0 -208 -184 -208h-99v-194h-49zM118 239h102q67 0 99.5 38.5t32.5 122.5q0 81 -32.5 118.5t-100.5 37.5h-101v-317z" />
    <glyph glyph-name="germandbls" unicode="&#xdf;" horiz-adv-x="405" 
d="M230 -5q-51 0 -94 25l22 37q30 -20 72 -20q105 0 105 172q0 170 -156 189v39q112 12 112 135q0 126 -91 126q-96 0 -96 -141v-557h-44v556q0 89 37.5 136.5t104.5 47.5q65 0 99.5 -42.5t34.5 -123.5q0 -58 -26 -97.5t-70 -55.5q140 -45 140 -212q0 -214 -150 -214z" />
    <glyph glyph-name="agrave" unicode="&#xe0;" horiz-adv-x="375" 
d="M137 -4q-49 0 -74.5 34.5t-25.5 91.5q0 72 57.5 133t177.5 94v49q0 94 -70 94q-64 0 -121 -77l-34 26q69 92 157 92q60 0 86 -34.5t26 -104.5v-264q0 -93 11 -130h-46q-9 40 -9 66q-60 -70 -135 -70zM149 37q61 0 123 75v194q-101 -26 -146.5 -76.5t-45.5 -106.5
q0 -86 69 -86zM202 582l-97 151h60l66 -151h-29z" />
    <glyph glyph-name="aacute" unicode="&#xe1;" horiz-adv-x="375" 
d="M137 -4q-49 0 -74.5 34.5t-25.5 91.5q0 72 57.5 133t177.5 94v49q0 94 -70 94q-64 0 -121 -77l-34 26q69 92 157 92q60 0 86 -34.5t26 -104.5v-264q0 -93 11 -130h-46q-9 40 -9 66q-60 -70 -135 -70zM149 37q61 0 123 75v194q-101 -26 -146.5 -76.5t-45.5 -106.5
q0 -86 69 -86zM144 582l67 151h60l-97 -151h-30z" />
    <glyph glyph-name="acircumflex" unicode="&#xe2;" horiz-adv-x="375" 
d="M137 -4q-49 0 -74.5 34.5t-25.5 91.5q0 72 57.5 133t177.5 94v49q0 94 -70 94q-64 0 -121 -77l-34 26q69 92 157 92q60 0 86 -34.5t26 -104.5v-264q0 -93 11 -130h-46q-9 40 -9 66q-60 -70 -135 -70zM149 37q61 0 123 75v194q-101 -26 -146.5 -76.5t-45.5 -106.5
q0 -86 69 -86zM81 577l91 156h30l90 -156h-31l-75 95l-73 -95h-32z" />
    <glyph glyph-name="atilde" unicode="&#xe3;" horiz-adv-x="375" 
d="M137 -4q-49 0 -74.5 34.5t-25.5 91.5q0 72 57.5 133t177.5 94v49q0 94 -70 94q-64 0 -121 -77l-34 26q69 92 157 92q60 0 86 -34.5t26 -104.5v-264q0 -93 11 -130h-46q-9 40 -9 66q-60 -70 -135 -70zM149 37q61 0 123 75v194q-101 -26 -146.5 -76.5t-45.5 -106.5
q0 -86 69 -86zM242 580q-24 0 -61 28t-49 28q-15 0 -21 -12t-6 -42h-36q0 98 64 98q23 0 59 -28t50 -28t20 11t6 43h36q0 -98 -62 -98z" />
    <glyph glyph-name="adieresis" unicode="&#xe4;" horiz-adv-x="375" 
d="M137 -4q-49 0 -74.5 34.5t-25.5 91.5q0 72 57.5 133t177.5 94v49q0 94 -70 94q-64 0 -121 -77l-34 26q69 92 157 92q60 0 86 -34.5t26 -104.5v-264q0 -93 11 -130h-46q-9 40 -9 66q-60 -70 -135 -70zM149 37q61 0 123 75v194q-101 -26 -146.5 -76.5t-45.5 -106.5
q0 -86 69 -86zM218 582v65h54v-65h-54zM102 582v65h53v-65h-53z" />
    <glyph glyph-name="aring" unicode="&#xe5;" horiz-adv-x="375" 
d="M137 -4q-49 0 -74.5 34.5t-25.5 91.5q0 72 57.5 133t177.5 94v49q0 94 -70 94q-64 0 -121 -77l-34 26q69 92 157 92q60 0 86 -34.5t26 -104.5v-264q0 -93 11 -130h-46q-9 40 -9 66q-60 -70 -135 -70zM149 37q61 0 123 75v194q-101 -26 -146.5 -76.5t-45.5 -106.5
q0 -86 69 -86zM186 568q-34 0 -52 27t-18 70q0 42 18.5 68.5t51.5 26.5q32 0 52 -27t20 -68q0 -43 -19 -70t-53 -27zM186 604q18 0 27 17.5t9 43.5q0 25 -9 42t-27 17q-34 0 -34 -59q0 -61 34 -61z" />
    <glyph glyph-name="ae" unicode="&#xe6;" horiz-adv-x="609" 
d="M298 86q-43 -52 -80 -72.5t-81 -20.5q-49 0 -74.5 34.5t-25.5 91.5q0 77 56.5 136.5t178.5 93.5v49q0 94 -70 94q-64 0 -121 -77l-34 26q69 92 158 92q84 0 104 -75q39 75 117 75q75 0 109.5 -75t34.5 -191v-6h-255q0 -227 111 -227q42 0 65.5 27.5t36.5 81.5l40 -9
q-35 -142 -145 -142q-88 0 -125 94zM315 300h209q-2 84 -26.5 137.5t-72.5 53.5q-97 0 -110 -191zM273 306q-100 -24 -146.5 -75.5t-46.5 -110.5q0 -86 69 -86q66 0 137 90q-14 59 -14 138q0 30 1 44z" />
    <glyph glyph-name="ccedilla" unicode="&#xe7;" horiz-adv-x="359" 
d="M164 -5q-60 13 -92.5 81t-32.5 186q0 135 40.5 203t114.5 68q57 0 87 -37.5t48 -112.5l-41 -11q-16 62 -36 90.5t-60 28.5q-50 0 -79 -60t-29 -168q0 -104 27.5 -166.5t82.5 -62.5q39 0 59.5 28t36.5 92l41 -10q-18 -76 -50 -113t-83 -39l-9 -47q14 14 36 14
q23 0 40.5 -16.5t17.5 -50.5q0 -45 -26.5 -65t-65.5 -20q-51 0 -89 38l19 24q37 -30 70 -30q51 0 51 49q0 37 -31 37q-19 0 -37 -20l-25 12z" />
    <glyph glyph-name="egrave" unicode="&#xe8;" horiz-adv-x="378" 
d="M192 -8q-73 0 -113 68.5t-40 201.5q0 135 41 203t115 68q75 0 109.5 -75t34.5 -191v-6h-255q0 -227 111 -227q42 0 65.5 27.5t36.5 81.5l40 -9q-35 -142 -145 -142zM84 300h209q-2 84 -26.5 137.5t-72.5 53.5q-97 0 -110 -191zM203 582l-97 151h60l66 -151h-29z" />
    <glyph glyph-name="eacute" unicode="&#xe9;" horiz-adv-x="378" 
d="M192 -8q-73 0 -113 68.5t-40 201.5q0 135 41 203t115 68q75 0 109.5 -75t34.5 -191v-6h-255q0 -227 111 -227q42 0 65.5 27.5t36.5 81.5l40 -9q-35 -142 -145 -142zM84 300h209q-2 84 -26.5 137.5t-72.5 53.5q-97 0 -110 -191zM145 582l67 151h60l-97 -151h-30z" />
    <glyph glyph-name="ecircumflex" unicode="&#xea;" horiz-adv-x="378" 
d="M192 -8q-73 0 -113 68.5t-40 201.5q0 135 41 203t115 68q75 0 109.5 -75t34.5 -191v-6h-255q0 -227 111 -227q42 0 65.5 27.5t36.5 81.5l40 -9q-35 -142 -145 -142zM84 300h209q-2 84 -26.5 137.5t-72.5 53.5q-97 0 -110 -191zM82 577l91 156h30l90 -156h-31l-75 95
l-73 -95h-32z" />
    <glyph glyph-name="edieresis" unicode="&#xeb;" horiz-adv-x="378" 
d="M192 -8q-73 0 -113 68.5t-40 201.5q0 135 41 203t115 68q75 0 109.5 -75t34.5 -191v-6h-255q0 -227 111 -227q42 0 65.5 27.5t36.5 81.5l40 -9q-35 -142 -145 -142zM84 300h209q-2 84 -26.5 137.5t-72.5 53.5q-97 0 -110 -191zM219 582v65h54v-65h-54zM103 582v65h53v-65
h-53z" />
    <glyph glyph-name="igrave" unicode="&#xec;" horiz-adv-x="175" 
d="M65 0v525h45v-525h-45zM75 582l-97 151h60l66 -151h-29z" />
    <glyph glyph-name="iacute" unicode="&#xed;" horiz-adv-x="175" 
d="M65 0v525h45v-525h-45zM75 582l67 151h60l-97 -151h-30z" />
    <glyph glyph-name="icircumflex" unicode="&#xee;" horiz-adv-x="175" 
d="M65 0v525h45v-525h-45zM-18 577l91 156h30l90 -156h-31l-75 95l-73 -95h-32z" />
    <glyph glyph-name="idieresis" unicode="&#xef;" horiz-adv-x="175" 
d="M65 0v525h45v-525h-45zM118 582v65h54v-65h-54zM2 582v65h53v-65h-53z" />
    <glyph glyph-name="eth" unicode="&#xf0;" horiz-adv-x="393" 
d="M245 625l-71 -39l-18 32l70 38q-20 30 -48 58l30 27q31 -33 55 -65l61 33l18 -32l-59 -32q71 -120 71 -339q0 -314 -159 -314q-75 0 -115.5 69.5t-40.5 200.5q0 133 40 202t116 69q81 0 114 -94q-20 108 -64 186zM195 34q58 0 86 62t28 167q0 100 -28 164t-86 64
q-57 0 -84 -61.5t-27 -166.5q0 -229 111 -229z" />
    <glyph glyph-name="ntilde" unicode="&#xf1;" horiz-adv-x="402" 
d="M60 0v525h44v-70q67 78 139 78q53 0 77.5 -32.5t24.5 -102.5v-398h-44v393q0 50 -14.5 74t-50.5 24q-30 0 -66 -24t-66 -55v-412h-44zM255 580q-24 0 -61 28t-49 28q-15 0 -21 -12t-6 -42h-36q0 98 64 98q23 0 59 -28t50 -28t20 11t6 43h36q0 -98 -62 -98z" />
    <glyph glyph-name="ograve" unicode="&#xf2;" horiz-adv-x="393" 
d="M197 -8q-76 0 -117 69.5t-41 200.5q0 133 40.5 202t117.5 69q76 0 116.5 -69t40.5 -202q0 -132 -40.5 -201t-116.5 -69zM197 34q57 0 84.5 61.5t27.5 167.5q0 101 -26.5 164.5t-85.5 63.5q-57 0 -85 -62t-28 -166q0 -66 10 -115t36 -81.5t67 -32.5zM211 582l-97 151h60
l66 -151h-29z" />
    <glyph glyph-name="oacute" unicode="&#xf3;" horiz-adv-x="393" 
d="M197 -8q-76 0 -117 69.5t-41 200.5q0 133 40.5 202t117.5 69q76 0 116.5 -69t40.5 -202q0 -132 -40.5 -201t-116.5 -69zM197 34q57 0 84.5 61.5t27.5 167.5q0 101 -26.5 164.5t-85.5 63.5q-57 0 -85 -62t-28 -166q0 -66 10 -115t36 -81.5t67 -32.5zM153 582l67 151h60
l-97 -151h-30z" />
    <glyph glyph-name="ocircumflex" unicode="&#xf4;" horiz-adv-x="393" 
d="M197 -8q-76 0 -117 69.5t-41 200.5q0 133 40.5 202t117.5 69q76 0 116.5 -69t40.5 -202q0 -132 -40.5 -201t-116.5 -69zM197 34q57 0 84.5 61.5t27.5 167.5q0 101 -26.5 164.5t-85.5 63.5q-57 0 -85 -62t-28 -166q0 -66 10 -115t36 -81.5t67 -32.5zM90 577l91 156h30
l90 -156h-31l-75 95l-73 -95h-32z" />
    <glyph glyph-name="otilde" unicode="&#xf5;" horiz-adv-x="393" 
d="M197 -8q-76 0 -117 69.5t-41 200.5q0 133 40.5 202t117.5 69q76 0 116.5 -69t40.5 -202q0 -132 -40.5 -201t-116.5 -69zM197 34q57 0 84.5 61.5t27.5 167.5q0 101 -26.5 164.5t-85.5 63.5q-57 0 -85 -62t-28 -166q0 -66 10 -115t36 -81.5t67 -32.5zM251 580q-24 0 -61 28
t-49 28q-15 0 -21 -12t-6 -42h-36q0 98 64 98q23 0 59 -28t50 -28t20 11t6 43h36q0 -98 -62 -98z" />
    <glyph glyph-name="odieresis" unicode="&#xf6;" horiz-adv-x="393" 
d="M197 -8q-76 0 -117 69.5t-41 200.5q0 133 40.5 202t117.5 69q76 0 116.5 -69t40.5 -202q0 -132 -40.5 -201t-116.5 -69zM197 34q57 0 84.5 61.5t27.5 167.5q0 101 -26.5 164.5t-85.5 63.5q-57 0 -85 -62t-28 -166q0 -66 10 -115t36 -81.5t67 -32.5zM227 582v65h54v-65
h-54zM111 582v65h53v-65h-53z" />
    <glyph glyph-name="divide" unicode="&#xf7;" horiz-adv-x="445" 
d="M195 458v77h53v-77h-53zM46 303v42h353v-42h-353zM195 112v76h53v-76h-53z" />
    <glyph glyph-name="oslash" unicode="&#xf8;" horiz-adv-x="393" 
d="M317 458q37 -69 37 -196q0 -132 -40.5 -201t-116.5 -69q-57 0 -94 39l-27 -54l-36 18l36 73q-37 69 -37 194q0 133 40.5 202t117.5 69q57 0 93 -38l26 51l36 -18zM103 117l167 333q-27 41 -73 41q-57 0 -85 -62t-28 -166q0 -88 19 -146zM290 408l-167 -333q28 -41 74 -41
q57 0 84.5 61.5t27.5 167.5q0 87 -19 145z" />
    <glyph glyph-name="ugrave" unicode="&#xf9;" horiz-adv-x="399" 
d="M159 -7q-53 0 -77.5 32.5t-24.5 102.5v397h44v-392q0 -50 14.5 -74t50.5 -24q55 0 129 79v411h44v-525h-44v71q-67 -78 -136 -78zM214 582l-97 151h60l66 -151h-29z" />
    <glyph glyph-name="uacute" unicode="&#xfa;" horiz-adv-x="399" 
d="M159 -7q-53 0 -77.5 32.5t-24.5 102.5v397h44v-392q0 -50 14.5 -74t50.5 -24q55 0 129 79v411h44v-525h-44v71q-67 -78 -136 -78zM156 582l67 151h60l-97 -151h-30z" />
    <glyph glyph-name="ucircumflex" unicode="&#xfb;" horiz-adv-x="399" 
d="M159 -7q-53 0 -77.5 32.5t-24.5 102.5v397h44v-392q0 -50 14.5 -74t50.5 -24q55 0 129 79v411h44v-525h-44v71q-67 -78 -136 -78zM94 577l91 156h30l90 -156h-31l-75 95l-73 -95h-32z" />
    <glyph glyph-name="udieresis" unicode="&#xfc;" horiz-adv-x="399" 
d="M159 -7q-53 0 -77.5 32.5t-24.5 102.5v397h44v-392q0 -50 14.5 -74t50.5 -24q55 0 129 79v411h44v-525h-44v71q-67 -78 -136 -78zM231 582v65h54v-65h-54zM115 582v65h53v-65h-53z" />
    <glyph glyph-name="yacute" unicode="&#xfd;" horiz-adv-x="364" 
d="M60 -200q-30 0 -53 10l12 37q17 -7 46 -7q30 0 46.5 24.5t31.5 83.5l18 64l-137 513h43l83 -316q21 -78 31 -133h2q14 69 31 132l84 317h42l-157 -587q-20 -77 -45.5 -107.5t-77.5 -30.5zM138 582l67 151h60l-97 -151h-30z" />
    <glyph glyph-name="thorn" unicode="&#xfe;" horiz-adv-x="404" 
d="M60 -200v940h44v-279q53 72 116 72q145 0 145 -270q0 -269 -146 -269q-66 0 -115 73v-267h-44zM216 36q104 0 104 226q0 229 -105 229q-22 0 -44 -13t-35 -26.5t-32 -36.5v-298q56 -81 112 -81z" />
    <glyph glyph-name="ydieresis" unicode="&#xff;" horiz-adv-x="364" 
d="M60 -200q-30 0 -53 10l12 37q17 -7 46 -7q30 0 46.5 24.5t31.5 83.5l18 64l-137 513h43l83 -316q21 -78 31 -133h2q14 69 31 132l84 317h42l-157 -587q-20 -77 -45.5 -107.5t-77.5 -30.5zM212 582v65h54v-65h-54zM96 582v65h53v-65h-53z" />
    <glyph glyph-name="dotlessi" unicode="&#x131;" horiz-adv-x="175" 
d="M65 0v525h45v-525h-45z" />
    <glyph glyph-name="Lslash" unicode="&#x141;" horiz-adv-x="380" 
d="M69 0v352l-56 -22v46l56 22v342h49v-324l102 40v-46l-102 -40v-325h233v-45h-282z" />
    <glyph glyph-name="lslash" unicode="&#x142;" horiz-adv-x="226" 
d="M89 0v358l-64 -24v42l64 24v340h48v-322l63 23v-42l-63 -23v-376h-48z" />
    <glyph glyph-name="OE" unicode="&#x152;" horiz-adv-x="731" 
d="M406 606v134h276v-43h-234v-282h168v-43h-168v-329h249v-43h-291v134q-43 -142 -158 -142q-97 0 -149.5 95t-52.5 283t52.5 283t149.5 95q115 0 158 -142zM248 35q76 0 115.5 86.5t39.5 248.5t-39.5 248.5t-115.5 86.5q-77 0 -117 -87t-40 -248t40 -248t117 -87z" />
    <glyph glyph-name="oe" unicode="&#x153;" horiz-adv-x="647" 
d="M197 -8q-76 0 -117 69.5t-41 200.5q0 133 40.5 202t117.5 69q98 0 134 -113q36 113 133 113q75 0 109.5 -75t34.5 -191v-6h-255q0 -227 111 -227q42 0 65.5 27.5t36.5 81.5l40 -9q-35 -142 -145 -142q-95 0 -130 113q-37 -113 -134 -113zM353 300h209q-2 84 -26.5 137.5
t-72.5 53.5q-97 0 -110 -191zM197 34q57 0 84.5 61.5t27.5 167.5q0 101 -26.5 164.5t-85.5 63.5q-57 0 -85 -62t-28 -166q0 -66 10 -115t36 -81.5t67 -32.5z" />
    <glyph glyph-name="Scaron" unicode="&#x160;" horiz-adv-x="427" 
d="M218 -10q-73 0 -116.5 44t-72.5 137l43 13q22 -76 56 -113.5t91 -37.5q59 0 90 33t31 90q0 45 -29.5 89.5t-71 82t-83 76t-71 88.5t-29.5 104q0 71 42.5 112.5t109.5 41.5q66 0 105.5 -41.5t62.5 -120.5l-43 -13q-20 67 -49 99.5t-77 32.5q-49 0 -76.5 -28.5t-27.5 -79.5
q0 -42 21 -82t52.5 -70t68 -64t68 -65t52.5 -73t21 -87q0 -76 -47 -122t-121 -46zM197 785l-90 156h33l73 -95l75 95h30l-91 -156h-30z" />
    <glyph glyph-name="scaron" unicode="&#x161;" horiz-adv-x="344" 
d="M171 -11q-106 0 -152 123l42 16q36 -97 110 -97q46 0 69.5 23t23.5 60q0 35 -22.5 65t-55 53t-65 47.5t-55 60t-22.5 78.5q0 51 37 84t89 33q98 0 135 -118l-44 -12q-11 39 -34.5 63.5t-57.5 24.5q-36 0 -58 -20.5t-22 -53.5q0 -30 16.5 -56t40.5 -44.5t53 -41t53 -43
t40.5 -52t16.5 -67.5q0 -55 -37.5 -90.5t-100.5 -35.5zM159 579l-90 156h33l73 -95l75 95h30l-91 -156h-30z" />
    <glyph glyph-name="Ydieresis" unicode="&#x178;" horiz-adv-x="400" 
d="M177 0v296l-159 444h46l136 -390h2l136 390h45l-160 -444v-296h-46zM231 787v65h54v-65h-54zM115 787v65h53v-65h-53z" />
    <glyph glyph-name="Zcaron" unicode="&#x17d;" horiz-adv-x="411" 
d="M32 0v37l291 660h-269v43h320v-37l-292 -660h292v-43h-342zM189 784l-90 156h33l73 -95l75 95h30l-91 -156h-30z" />
    <glyph glyph-name="zcaron" unicode="&#x17e;" horiz-adv-x="337" 
d="M31 0v34l215 449h-196v42h246v-33l-216 -450h224v-42h-273zM152 579l-90 156h33l73 -95l75 95h30l-91 -156h-30z" />
    <glyph glyph-name="florin" unicode="&#x192;" horiz-adv-x="249" 
d="M-42 -202q-21 0 -40 3l8 44q15 -3 29 -3q30 0 46 15t21 52l63 453h-67l7 44h66l32 225q16 112 115 112q2 0 32 -3l-8 -44q-20 2 -27 2q-60 0 -69 -67l-31 -225h82l-7 -44h-81l-63 -457q-8 -61 -36 -84t-72 -23z" />
    <glyph glyph-name="circumflex" unicode="&#x2c6;" 
d="M69 577l91 156h30l90 -156h-31l-75 95l-73 -95h-32z" />
    <glyph glyph-name="caron" unicode="&#x2c7;" 
d="M159 579l-90 156h33l73 -95l75 95h30l-91 -156h-30z" />
    <glyph glyph-name="breve" unicode="&#x2d8;" 
d="M175 579q-95 0 -101 159h37q5 -62 19 -88.5t45 -26.5q32 0 46 26.5t19 88.5h36q-5 -159 -101 -159z" />
    <glyph glyph-name="dotaccent" unicode="&#x2d9;" 
d="M147 582v67h58v-67h-58z" />
    <glyph glyph-name="ring" unicode="&#x2da;" 
d="M174 568q-34 0 -52 27t-18 70q0 42 18.5 68.5t51.5 26.5q32 0 52 -27t20 -68q0 -43 -19 -70t-53 -27zM174 604q18 0 27 17.5t9 43.5q0 25 -9 42t-27 17q-34 0 -34 -59q0 -61 34 -61z" />
    <glyph glyph-name="ogonek" unicode="&#x2db;" 
d="M179 -187q-74 0 -74 77q0 59 61 110h27q-48 -47 -48 -103q0 -51 41 -51q29 0 62 21l16 -20q-44 -34 -85 -34z" />
    <glyph glyph-name="tilde" unicode="&#x2dc;" 
d="M230 580q-24 0 -61 28t-49 28q-15 0 -21 -12t-6 -42h-36q0 98 64 98q23 0 59 -28t50 -28t20 11t6 43h36q0 -98 -62 -98z" />
    <glyph glyph-name="hungarumlaut" unicode="&#x2dd;" 
d="M165 582l64 151h64l-97 -151h-31zM58 582l65 151h63l-96 -151h-32z" />
    <glyph glyph-name="endash" unicode="&#x2013;" horiz-adv-x="440" 
d="M45 295v42h350v-42h-350z" />
    <glyph glyph-name="emdash" unicode="&#x2014;" horiz-adv-x="570" 
d="M45 295v42h480v-42h-480z" />
    <glyph glyph-name="quoteleft" unicode="&#x2018;" horiz-adv-x="199" 
d="M71 565v73l33 102h21l-21 -96h24v-79h-57z" />
    <glyph glyph-name="quoteright" unicode="&#x2019;" horiz-adv-x="199" 
d="M75 565l20 97h-25v78h58v-72l-32 -103h-21z" />
    <glyph glyph-name="quotesinglbase" unicode="&#x201a;" horiz-adv-x="199" 
d="M75 -96l20 96h-25v78h58v-72l-32 -102h-21z" />
    <glyph glyph-name="quotedblleft" unicode="&#x201c;" horiz-adv-x="328" 
d="M199 565v73l33 102h21l-21 -96h26v-79h-59zM71 565v73l33 102h21l-21 -96h24v-79h-57z" />
    <glyph glyph-name="quotedblright" unicode="&#x201d;" horiz-adv-x="327" 
d="M203 565l20 97h-24v78h58v-72l-33 -103h-21zM75 565l20 97h-25v78h58v-72l-32 -103h-21z" />
    <glyph glyph-name="quotedblbase" unicode="&#x201e;" horiz-adv-x="327" 
d="M203 -96l20 96h-24v78h58v-72l-33 -102h-21zM75 -96l20 96h-25v78h58v-72l-32 -102h-21z" />
    <glyph glyph-name="dagger" unicode="&#x2020;" horiz-adv-x="380" 
d="M165 -200l9 637l-137 -9v48l137 -10l-9 274h50l-9 -274l137 10v-48l-137 9l9 -637h-50z" />
    <glyph glyph-name="daggerdbl" unicode="&#x2021;" horiz-adv-x="379" 
d="M165 -200l8 248l-134 -10v47l134 -9l-6 197l6 192l-134 -9v47l134 -10l-8 247h50l-10 -247l135 10v-47l-135 9l7 -192l-7 -197l135 9v-47l-135 10l10 -248h-50z" />
    <glyph glyph-name="bullet" unicode="&#x2022;" horiz-adv-x="463" 
d="M231 237q-49 0 -81 32t-32 81t32 81.5t81 32.5t81.5 -32t32.5 -82q0 -49 -32.5 -81t-81.5 -32z" />
    <glyph glyph-name="ellipsis" unicode="&#x2026;" horiz-adv-x="597" 
d="M468 0v78h58v-78h-58zM269 0v78h58v-78h-58zM70 0v78h58v-78h-58z" />
    <glyph glyph-name="perthousand" unicode="&#x2030;" horiz-adv-x="924" 
d="M157 313q-110 0 -110 215q0 220 112 220q108 0 108 -216q0 -219 -110 -219zM151 0l311 740h42l-310 -740h-43zM766 -8q-110 0 -110 215q0 220 111 220q110 0 110 -216q0 -219 -111 -219zM498 -8q-110 0 -110 215q0 220 111 220q110 0 110 -216q0 -219 -111 -219zM158 355
q65 0 65 175q0 176 -66 176q-65 0 -65 -174q0 -177 66 -177zM767 34q66 0 66 175q0 176 -67 176q-65 0 -65 -174q0 -177 66 -177zM499 34q66 0 66 175q0 176 -67 176q-65 0 -65 -174q0 -177 66 -177z" />
    <glyph glyph-name="guilsinglleft" unicode="&#x2039;" horiz-adv-x="199" 
d="M115 0l-92 263l92 262h45l-91 -262l91 -263h-45z" />
    <glyph glyph-name="guilsinglright" unicode="&#x203a;" horiz-adv-x="199" 
d="M40 0l89 263l-89 262h44l92 -262l-92 -263h-44z" />
    <glyph glyph-name="fraction" unicode="&#x2044;" horiz-adv-x="299" 
d="M-11 0l274 740h47l-274 -740h-47z" />
    <glyph glyph-name="Euro" unicode="&#x20ac;" horiz-adv-x="457" 
d="M252 -8q-158 0 -177 291h-69v40h67q-1 16 -1 50q0 33 1 49h-67v40h69q21 286 175 286q63 0 101 -44.5t57 -138.5l-43 -10q-15 73 -40.5 111t-73.5 38q-113 0 -129 -242h176v-40h-178q-1 -15 -1 -47q0 -35 1 -52h178v-40h-176q16 -247 130 -247q56 0 82 39.5t41 120.5
l42 -8q-18 -94 -55 -145t-110 -51z" />
    <glyph glyph-name="recordright" unicode="&#x2117;" horiz-adv-x="549" 
d="M275 -14q-106 0 -174.5 111.5t-68.5 272.5t68.5 272.5t174.5 111.5q105 0 173.5 -111.5t68.5 -272.5t-68.5 -272.5t-173.5 -111.5zM275 18q90 0 149.5 103t59.5 249t-59.5 249t-149.5 103t-150 -103t-60 -249t60 -249t150 -103zM189 160v417h89q103 0 103 -114
q0 -120 -106 -120h-49v-183h-37zM226 378h51q67 0 67 84q0 80 -68 80h-50v-164z" />
    <glyph glyph-name="trademark" unicode="&#x2122;" horiz-adv-x="592" 
d="M272 298v442h42l90 -373l91 373h43v-442h-38v312l-78 -312h-36l-78 315v-315h-36zM108 298v403h-88v39h217v-39h-88v-403h-41z" />
    <glyph glyph-name="minus" unicode="&#x2212;" horiz-adv-x="445" 
d="M46 303v42h353v-42h-353z" />
    <glyph glyph-name="radical" unicode="&#x221a;" horiz-adv-x="406" 
d="M154 -3l-130 528h43l109 -446h2l162 661h42l-183 -743h-45z" />
    <glyph glyph-name="registered.alt" unicode="&#xe000;" horiz-adv-x="333" 
d="M167 289q-64 0 -106.5 67.5t-42.5 165.5q0 99 42 166.5t107 67.5q64 0 106 -67.5t42 -166.5q0 -98 -42 -165.5t-106 -67.5zM167 314q53 0 87.5 61t34.5 147q0 87 -34.5 148t-87.5 61q-54 0 -88.5 -61t-34.5 -148t34.5 -147.5t88.5 -60.5zM106 397v256h57q65 0 65 -71
q0 -56 -39 -71l45 -113h-32l-41 109h-27v-110h-28zM134 534h28q38 0 38 47q0 45 -38 45h-28v-92z" />
    <glyph glyph-name="fl" unicode="&#xfb02;" horiz-adv-x="417" 
d="M302 0v740h45v-740h-45zM84 0v483h-65v42h65v103q0 112 114 112h17v-42h-22q-64 0 -64 -66v-107h82v-42h-82v-483h-45z" />
    </font>
</defs>
</svg>
