<?xml version="1.0" standalone="no"?>
<!DOCTYPE svg PUBLIC "-//W3C//DTD SVG 1.1//EN" "http://www.w3.org/Graphics/SVG/1.1/DTD/svg11.dtd" >
<svg xmlns="http://www.w3.org/2000/svg" xmlns:xlink="http://www.w3.org/1999/xlink" version="1.1">
<metadata>
Created by FontForge 20170731 at Wed Aug  2 21:05:20 2006
 By Aleksey,,,
Copyright 2000-2003, The Font Bureau, Inc. Designed by Cyrus Highsmith, Tobias Frere-Jones, and Font Bureau. All rights reserved.
</metadata>
<defs>
<font id="BentonSansComp-Medium" horiz-adv-x="514" >
  <font-face 
    font-family="BentonSans Comp Medium"
    font-weight="400"
    font-stretch="normal"
    units-per-em="1000"
    panose-1="2 0 6 6 5 0 0 2 0 4"
    ascent="800"
    descent="-200"
    x-height="530"
    cap-height="740"
    bbox="-72 -208 1030 944"
    underline-thickness="20"
    underline-position="-173"
    unicode-range="U+0020-FB0C"
  />
<missing-glyph horiz-adv-x="780" 
d="M336 0l7 134l-164 -11v35h-36l11 165l-134 -8v109l134 -7l-11 164h36v36l164 -11l-7 134h109l-8 -134l165 11v-36h35l-11 -164l134 7v-109l-134 8l11 -165h-35v-35l-165 11l8 -134h-109zM437 417h119l-7 112l-112 7v-119zM224 417h119v119l-111 -7zM437 204l112 7l7 112
h-119v-119zM343 204v119h-119l7 -112z" />
    <glyph glyph-name="ff" unicode="ff" horiz-adv-x="495" 
d="M74 0v445l-62 3v82h62v74q0 67 31.5 102t103.5 35q27 0 39 -2v-88q-3 1 -21 1q-49 0 -49 -55v-67h123v71q0 68 32.5 104t107.5 36q32 0 44 -2v-88q-3 1 -26 1q-54 0 -54 -55v-67h77v-85h-77v-445h-104v445h-123v-445h-104z" />
    <glyph glyph-name="fi" unicode="fi" horiz-adv-x="460" 
d="M299 611v108h107v-108h-107zM74 0v445h-62v85h62v74q0 137 132 137q26 0 40 -2v-87h-21q-47 0 -47 -55v-67h65v-85h-65v-445h-104zM300 0v530h105v-530h-105z" />
    <glyph glyph-name="ffi" unicode="ffi" horiz-adv-x="687" 
d="M527 611v108h106v-108h-106zM74 0v445h-62v85h62v74q0 67 31.5 102t103.5 35q27 0 39 -2v-88q-3 1 -21 1q-49 0 -49 -55v-67h123v71q0 140 132 140q26 0 40 -2v-87h-21q-47 0 -47 -55v-67h65v-85h-65v-445h-104v445h-123v-445h-104zM528 0v530h104v-530h-104z" />
    <glyph glyph-name="ffl" unicode="ffl" horiz-adv-x="687" 
d="M528 0v740h104v-740h-104zM74 0v445h-62v85h62v74q0 67 31.5 102t103.5 35q27 0 39 -2v-88q-3 1 -21 1q-49 0 -49 -55v-67h123v71q0 140 132 140q26 0 40 -2v-87h-21q-47 0 -47 -55v-67h65v-85h-65v-445h-104v445h-123v-445h-104z" />
    <glyph glyph-name="fj" unicode="fj" horiz-adv-x="460" 
d="M299 611v108h107v-108h-107zM74 0v445h-62v85h62v74q0 137 132 137q26 0 40 -2v-87h-21q-47 0 -47 -55v-67h65v-85h-65v-445h-104zM283 -201q-37 0 -43 3v82q6 -2 23 -2q37 0 37 51v597h105v-595q0 -72 -27.5 -104t-94.5 -32z" />
    <glyph glyph-name=".notdef" horiz-adv-x="780" 
d="M336 0l7 134l-164 -11v35h-36l11 165l-134 -8v109l134 -7l-11 164h36v36l164 -11l-7 134h109l-8 -134l165 11v-36h35l-11 -164l134 7v-109l-134 8l11 -165h-35v-35l-165 11l8 -134h-109zM437 417h119l-7 112l-112 7v-119zM224 417h119v119l-111 -7zM437 204l112 7l7 112
h-119v-119zM343 204v119h-119l7 -112z" />
    <glyph glyph-name=".null" horiz-adv-x="0" 
 />
    <glyph glyph-name="nonmarkingreturn" horiz-adv-x="333" 
 />
    <glyph glyph-name="space" unicode=" " horiz-adv-x="172" 
 />
    <glyph glyph-name="exclam" unicode="!" horiz-adv-x="254" 
d="M84 203l-17 537h122l-18 -537h-87zM68 0v118h119v-118h-119z" />
    <glyph glyph-name="quotedbl" unicode="&#x22;" horiz-adv-x="338" 
d="M209 483l-11 206v51h94v-51l-11 -206h-72zM58 483l-13 206v51h96v-51l-12 -206h-71z" />
    <glyph glyph-name="numbersign" unicode="#" horiz-adv-x="524" 
d="M66 0l31 209h-77v86h90l22 150h-82v86h95l31 209h95l-31 -209h89l30 209h95l-30 -209h80v-86h-93l-22 -150h84v-86h-97l-30 -209h-96l30 209h-88l-30 -209h-96zM204 292h91l23 156h-92z" />
    <glyph glyph-name="dollar" unicode="$" horiz-adv-x="469" 
d="M189 740v79h88v-82q56 -13 88 -56t53 -119l-95 -25q-18 61 -40.5 87t-57.5 26q-34 0 -53.5 -22t-19.5 -57q0 -31 15 -58.5t39.5 -48.5t54 -41.5t58.5 -44t53.5 -49.5t39.5 -64t15 -82q0 -76 -38.5 -123.5t-111.5 -57.5v-95h-88v96q-66 13 -102.5 59.5t-55.5 136.5l94 20
q30 -131 111 -131q86 0 86 87q0 31 -15 58t-39 47.5t-53 41t-58.5 43.5t-53.5 50t-39 65t-15 84q0 72 37 119t103 57z" />
    <glyph glyph-name="percent" unicode="%" horiz-adv-x="748" 
d="M170 314q-139 0 -139 216q0 103 34.5 161t105.5 58q137 0 137 -217q0 -100 -33 -159t-105 -59zM174 0l310 740h90l-309 -740h-91zM579 -8q-138 0 -138 215q0 220 138 220t138 -216q0 -100 -33.5 -159.5t-104.5 -59.5zM170 388q26 0 36.5 35.5t10.5 107.5q0 74 -10.5 108
t-37.5 34q-26 0 -36.5 -34.5t-10.5 -105.5q0 -75 10.5 -110t37.5 -35zM579 66q48 0 48 143q0 75 -11 108.5t-38 33.5q-26 0 -36.5 -34.5t-10.5 -105.5q0 -75 10.5 -110t37.5 -35z" />
    <glyph glyph-name="ampersand" unicode="&#x26;" horiz-adv-x="532" 
d="M254 390q13 -29 38 -70q42 -70 75 -111q29 78 32 174h91q-14 -151 -58 -245q48 -39 92 -45v-97q-74 3 -146 62q-64 -66 -165 -66q-95 0 -145.5 47t-50.5 134q0 74 32.5 126t91.5 102q-41 101 -41 176q0 83 41.5 128t108.5 45q70 0 102.5 -39.5t32.5 -100.5
q0 -30 -8.5 -58t-17 -45.5t-32.5 -44t-33 -35t-40 -37.5zM221 470q38 35 55.5 63t17.5 69q0 64 -44 64q-26 0 -39.5 -21.5t-13.5 -58.5q0 -44 24 -116zM315 120q-45 53 -97 135q-19 31 -37 63q-59 -66 -59 -136q0 -47 24.5 -76.5t73.5 -29.5q56 0 95 44z" />
    <glyph glyph-name="quotesingle" unicode="'" horiz-adv-x="188" 
d="M58 483l-13 206v51h98v-51l-12 -206h-73z" />
    <glyph glyph-name="parenleft" unicode="(" horiz-adv-x="307" 
d="M209 -205q-177 211 -177 479q0 261 176 477l76 -45q-144 -210 -144 -432q0 -119 39.5 -234t104.5 -201z" />
    <glyph glyph-name="parenright" unicode=")" horiz-adv-x="307" 
d="M99 -205l-76 44q144 212 144 434q0 118 -39.5 233t-104.5 200l76 45q176 -210 176 -478q0 -264 -176 -478z" />
    <glyph glyph-name="asterisk" unicode="*" horiz-adv-x="458" 
d="M171 350l-80 47l95 125l-154 -20v91l157 -21l-99 129l81 46l58 -149l60 149l80 -46l-97 -129l154 21v-91l-153 20l95 -125l-78 -47l-61 147z" />
    <glyph glyph-name="plus" unicode="+" horiz-adv-x="465" 
d="M185 85v199h-146v92h146v198h95v-198h146v-92h-146v-199h-95z" />
    <glyph glyph-name="comma" unicode="," horiz-adv-x="221" 
d="M68 -112l31 112h-50v126h122v-116l-53 -122h-50z" />
    <glyph glyph-name="hyphen" unicode="-" horiz-adv-x="275" 
d="M36 265v92h203v-92h-203z" />
    <glyph glyph-name="period" unicode="." horiz-adv-x="221" 
d="M49 0v126h122v-126h-122z" />
    <glyph glyph-name="slash" unicode="/" horiz-adv-x="421" 
d="M6 0l301 740h108l-302 -740h-107z" />
    <glyph glyph-name="zero" unicode="0" horiz-adv-x="479" 
d="M239 -9q-106 0 -157.5 90t-51.5 289t51.5 289t157.5 90t157 -89.5t51 -289.5t-51 -289.5t-157 -89.5zM239 82q53 0 76.5 64t23.5 224q0 159 -24 222t-76 63q-53 0 -77 -63t-24 -222t24.5 -223.5t76.5 -64.5z" />
    <glyph glyph-name="one" unicode="1" horiz-adv-x="339" 
d="M29 0v94h98v536q-47 -34 -96 -34v96q65 3 98 48h102v-646h87v-94h-289z" />
    <glyph glyph-name="two" unicode="2" horiz-adv-x="431" 
d="M24 0v16q0 93 27.5 163t66.5 111.5t78 77t66.5 81.5t27.5 105q0 101 -72 101q-35 0 -56 -25t-34 -94l-98 14q33 199 195 199q82 0 126 -50t44 -140q0 -67 -26 -123t-63.5 -95t-75 -75.5t-63.5 -80t-26 -91.5h254v-94h-371z" />
    <glyph glyph-name="three" unicode="3" horiz-adv-x="440" 
d="M213 -10q-87 0 -131.5 45t-65.5 134l94 18q27 -108 99 -108q91 0 91 132q0 78 -30 107.5t-110 29.5h-26v88h33q73 0 98 27t25 96q0 100 -78 100q-35 0 -54.5 -23t-33.5 -65l-91 24q46 156 184 156q177 0 177 -184q0 -139 -108 -170q62 -20 91 -65t29 -131
q0 -96 -49 -153.5t-144 -57.5z" />
    <glyph glyph-name="four" unicode="4" horiz-adv-x="460" 
d="M261 0v164h-245v82l233 494h114v-484h82v-92h-82v-164h-102zM116 256h148v320h-1z" />
    <glyph glyph-name="five" unicode="5" horiz-adv-x="439" 
d="M215 -10q-86 0 -129.5 46t-63.5 134l94 22q29 -113 94 -113q94 0 94 166q0 159 -82 159q-60 0 -91 -77l-86 16l20 397h317l-4 -95h-223l-11 -211q36 60 115 60q152 0 152 -245q0 -127 -52 -193t-144 -66z" />
    <glyph glyph-name="six" unicode="6" horiz-adv-x="450" 
d="M232 -10q-101 0 -151.5 89t-50.5 278q0 194 49 294.5t162 100.5q124 0 165 -141l-91 -27q-26 75 -77 75q-58 0 -81 -62.5t-23 -190.5q54 64 131 64q161 0 161 -229q0 -115 -49.5 -183t-144.5 -68zM234 79q88 0 88 156q0 70 -18.5 106.5t-64.5 36.5q-58 0 -105 -58
q3 -128 26.5 -184.5t73.5 -56.5z" />
    <glyph glyph-name="seven" unicode="7" horiz-adv-x="394" 
d="M62 0l209 645h-251v95h356v-89l-206 -651h-108z" />
    <glyph glyph-name="eight" unicode="8" horiz-adv-x="453" 
d="M226 -14q-102 0 -153.5 53t-51.5 134q0 69 35 119.5t95 94.5q-52 41 -79.5 82t-27.5 107q0 77 48 127.5t134 50.5q89 0 135.5 -50t46.5 -128q0 -106 -107 -188q42 -30 65.5 -52t44 -64.5t20.5 -96.5q0 -84 -53 -136.5t-152 -52.5zM231 441q75 64 75 131q0 42 -19 67.5
t-59 25.5t-59.5 -24.5t-19.5 -65.5q0 -42 21.5 -72.5t60.5 -61.5zM225 72q47 0 72 28.5t25 78.5q0 46 -25.5 80.5t-74.5 71.5q-45 -36 -69.5 -71.5t-24.5 -82.5t25.5 -76t71.5 -29z" />
    <glyph glyph-name="nine" unicode="9" horiz-adv-x="450" 
d="M209 -10q-124 0 -165 141l91 27q27 -78 78 -78q57 0 80 62.5t23 192.5q-54 -64 -131 -64q-161 0 -161 229q0 115 50 183.5t144 68.5q101 0 151.5 -89.5t50.5 -278.5q0 -197 -48.5 -295.5t-162.5 -98.5zM211 363q58 0 105 58q-3 125 -27 182.5t-73 57.5q-88 0 -88 -155
q0 -70 18.5 -106.5t64.5 -36.5z" />
    <glyph glyph-name="colon" unicode=":" horiz-adv-x="224" 
d="M52 404v126h119v-126h-119zM52 0v126h119v-126h-119z" />
    <glyph glyph-name="semicolon" unicode=";" horiz-adv-x="224" 
d="M52 404v126h119v-126h-119zM70 -112l30 112h-48v126h119v-116l-52 -122h-49z" />
    <glyph glyph-name="less" unicode="&#x3c;" horiz-adv-x="465" 
d="M407 77l-361 208v78l361 208v-96l-266 -151l266 -151v-96z" />
    <glyph glyph-name="equal" unicode="=" horiz-adv-x="465" 
d="M37 390v86h390v-86h-390zM37 175v86h390v-86h-390z" />
    <glyph glyph-name="greater" unicode="&#x3e;" horiz-adv-x="465" 
d="M58 77v96l266 151l-266 151v96l362 -208v-78z" />
    <glyph glyph-name="question" unicode="?" horiz-adv-x="400" 
d="M136 202q-2 85 12.5 124t60.5 101q22 29 32.5 46t20 43.5t9.5 53.5q0 85 -69 85q-34 0 -54 -25t-35 -73l-95 21q43 171 190 171q81 0 124 -46t43 -126q0 -51 -21.5 -93.5t-60.5 -89.5q-43 -54 -53 -86t-10 -106h-94zM122 0v118h119v-118h-119z" />
    <glyph glyph-name="at" unicode="@" horiz-adv-x="630" 
d="M315 -14q-135 0 -211 99t-76 284q0 183 78.5 284t209.5 101q129 0 207.5 -100t78.5 -274q0 -223 -139 -223q-82 0 -107 72q-41 -72 -101 -72q-52 0 -77.5 47.5t-23.5 130.5q3 121 38.5 188.5t100.5 67.5q55 0 79 -54l5 45h80l-28 -289q-4 -46 7 -65t38 -19q73 0 73 172
q0 156 -63 240t-169 84q-108 0 -170 -84t-62 -250t62.5 -250.5t170.5 -84.5q94 0 155 39l23 -42q-32 -21 -82 -34t-97 -13zM283 232q29 0 62 38l21 210q-22 37 -55 37q-32 0 -51 -43.5t-21 -129.5q-3 -112 44 -112z" />
    <glyph glyph-name="A" unicode="A" horiz-adv-x="471" 
d="M148 186l-38 -186h-96l168 743h107l168 -743h-107l-38 186h-164zM294 272l-22 108q-32 162 -40 227h-3q-7 -59 -40 -225l-23 -110h128z" />
    <glyph glyph-name="B" unicode="B" horiz-adv-x="480" 
d="M54 0v740h178q200 0 200 -186q0 -139 -101 -171v-2q55 -14 86.5 -55t31.5 -125q0 -102 -54.5 -151.5t-150.5 -49.5h-190zM162 422h66q50 0 74 26.5t24 87.5q0 62 -22 86t-75 24h-67v-224zM162 88h79q53 0 76.5 29.5t23.5 94.5q0 125 -110 125h-69v-249z" />
    <glyph glyph-name="C" unicode="C" horiz-adv-x="480" 
d="M253 -8q-110 0 -166 90.5t-56 287.5q0 379 221 379q96 0 142.5 -64t56.5 -191l-104 -11q-9 89 -30.5 127.5t-64.5 38.5q-58 0 -84.5 -68t-26.5 -210q0 -145 26.5 -214t85.5 -69q46 0 68.5 39t33.5 134l104 -10q-16 -122 -63.5 -190.5t-142.5 -68.5z" />
    <glyph glyph-name="D" unicode="D" horiz-adv-x="498" 
d="M54 0v740h146q90 0 147 -32t89 -114.5t32 -222.5q0 -105 -17.5 -178t-53.5 -115t-83.5 -60t-113.5 -18h-146zM164 93h50q80 0 111.5 63.5t31.5 214.5q0 149 -31.5 211t-112.5 62h-49v-551z" />
    <glyph glyph-name="E" unicode="E" horiz-adv-x="413" 
d="M54 0v740h324v-97h-214v-207h153v-92h-153v-250h225v-94h-335z" />
    <glyph glyph-name="F" unicode="F" horiz-adv-x="394" 
d="M54 0v740h323v-97h-213v-214h154v-92h-154v-337h-110z" />
    <glyph glyph-name="G" unicode="G" horiz-adv-x="501" 
d="M240 -7q-108 0 -158.5 91.5t-50.5 286.5q0 378 221 378q87 0 133 -61.5t64 -194.5l-100 -13q-11 92 -32.5 130.5t-64.5 38.5q-57 0 -84.5 -66t-27.5 -211q0 -284 116 -284q52 0 77.5 43.5t27.5 138.5h-98v90h192v-360h-77v95h-2q-14 -45 -49.5 -73.5t-86.5 -28.5z" />
    <glyph glyph-name="H" unicode="H" 
d="M54 0v740h110v-302h186v302h109v-740h-109v343h-186v-343h-110z" />
    <glyph glyph-name="I" unicode="I" horiz-adv-x="228" 
d="M59 0v740h110v-740h-110z" />
    <glyph glyph-name="J" unicode="J" horiz-adv-x="367" 
d="M153 -7q-89 0 -149 47l49 80q47 -33 87 -33q36 0 52 21.5t16 67.5v564h109v-570q0 -177 -164 -177z" />
    <glyph glyph-name="K" unicode="K" horiz-adv-x="472" 
d="M54 0v740h108v-362q15 48 70 156l105 206h107l-153 -293l175 -447h-112l-135 346l-57 -110v-236h-108z" />
    <glyph glyph-name="L" unicode="L" horiz-adv-x="398" 
d="M54 0v740h110v-646h215v-94h-325z" />
    <glyph glyph-name="M" unicode="M" horiz-adv-x="615" 
d="M54 0v740h134l118 -572h3l117 572h134v-740h-99v569h-2q-4 -36 -40 -206l-76 -363h-83l-77 371q-32 142 -38 197h-3v-568h-88z" />
    <glyph glyph-name="N" unicode="N" horiz-adv-x="512" 
d="M54 0v740h118l143 -371q35 -92 52 -146h2v517h88v-740h-94l-167 420q-35 88 -51 141h-3v-561h-88z" />
    <glyph glyph-name="O" unicode="O" 
d="M258 -9q-107 0 -167 93.5t-60 285.5t60 285.5t167 93.5q106 0 166 -93.5t60 -285.5t-60 -285.5t-166 -93.5zM258 88q114 0 114 282q0 279 -114 279q-117 0 -117 -279q0 -282 117 -282z" />
    <glyph glyph-name="P" unicode="P" horiz-adv-x="458" 
d="M54 0v740h174q209 0 209 -226q0 -234 -213 -234h-62v-280h-108zM162 371h67q51 0 75.5 32.5t24.5 107.5q0 72 -24 103t-77 31h-66v-274z" />
    <glyph glyph-name="Q" unicode="Q" 
d="M383 -193q-99 0 -138.5 51t-39.5 143q-174 39 -174 369q0 192 60 285.5t167 93.5q106 0 166 -93.5t60 -285.5q0 -334 -181 -370q4 -57 27 -77.5t77 -20.5h32v-95h-56zM258 86q114 0 114 284q0 279 -114 279q-117 0 -117 -279q0 -284 117 -284z" />
    <glyph glyph-name="R" unicode="R" horiz-adv-x="477" 
d="M331 317l115 -317h-109l-104 288h-72v-288h-107v740h162q220 0 220 -223q0 -148 -105 -200zM161 377h57q60 0 85.5 31t25.5 107q0 73 -25.5 101.5t-89.5 28.5h-53v-268z" />
    <glyph glyph-name="S" unicode="S" horiz-adv-x="457" 
d="M233 -11q-174 0 -214 211l100 19q13 -68 40.5 -101.5t74.5 -33.5q42 0 63 23t21 62q0 32 -20.5 64t-50.5 58t-66 57.5t-66 62t-50.5 73t-20.5 89.5q0 82 50.5 130t133.5 48q80 0 124.5 -49t66.5 -143l-97 -25q-16 62 -38 91t-60 29q-35 0 -54 -19t-19 -55q0 -40 28 -78.5
t68.5 -71t81 -68t68.5 -84t28 -104.5q0 -82 -53 -133.5t-139 -51.5z" />
    <glyph glyph-name="T" unicode="T" horiz-adv-x="422" 
d="M156 0v643h-140v97h389v-97h-139v-643h-110z" />
    <glyph glyph-name="U" unicode="U" horiz-adv-x="494" 
d="M248 -8q-106 0 -152 61.5t-46 179.5v507h108v-495q0 -82 20 -120.5t72 -38.5q51 0 71 38t20 119v497h103v-505q0 -121 -45 -182t-151 -61z" />
    <glyph glyph-name="V" unicode="V" horiz-adv-x="465" 
d="M179 -3l-166 743h108l77 -377q25 -125 39 -221h2q9 67 38 219l78 379h97l-166 -743h-107z" />
    <glyph glyph-name="W" unicode="W" horiz-adv-x="667" 
d="M146 -1l-130 741h105l57 -367q17 -118 24 -192h3q9 76 26 192l58 367h94l59 -366q20 -127 26 -193h3q8 83 24 190l57 369h94l-131 -741h-94l-88 557h-3l-90 -557h-94z" />
    <glyph glyph-name="X" unicode="X" horiz-adv-x="465" 
d="M13 0l164 392l-143 348h111l94 -239l91 239h100l-143 -342l164 -398h-111l-115 283l-112 -283h-100z" />
    <glyph glyph-name="Y" unicode="Y" horiz-adv-x="440" 
d="M165 0v276l-161 464h111l108 -342h3l107 342h103l-162 -464v-276h-109z" />
    <glyph glyph-name="Z" unicode="Z" horiz-adv-x="431" 
d="M20 0v83l264 560h-244v97h365v-86l-264 -560h264v-94h-385z" />
    <glyph glyph-name="bracketleft" unicode="[" horiz-adv-x="295" 
d="M50 -200v940h224v-82h-116v-778h116v-80h-224z" />
    <glyph glyph-name="backslash" unicode="\" horiz-adv-x="421" 
d="M307 0l-301 740h107l302 -740h-108z" />
    <glyph glyph-name="bracketright" unicode="]" horiz-adv-x="295" 
d="M22 -200v80h115v778h-115v82h224v-940h-224z" />
    <glyph glyph-name="asciicircum" unicode="^" horiz-adv-x="389" 
d="M69 581l91 159h69l89 -159h-61l-64 72l-62 -72h-62z" />
    <glyph glyph-name="underscore" unicode="_" horiz-adv-x="367" 
d="M-10 -137v81h387v-81h-387z" />
    <glyph glyph-name="grave" unicode="`" horiz-adv-x="377" 
d="M168 584l-99 156h107l66 -156h-74z" />
    <glyph glyph-name="a" unicode="a" horiz-adv-x="404" 
d="M130 -6q-50 0 -78.5 34t-28.5 101q0 79 62 137.5t173 85.5v29q0 34 -11.5 50.5t-39.5 16.5q-49 0 -115 -61l-57 67q84 84 188 84q73 0 104.5 -37.5t31.5 -115.5v-255q0 -93 11 -130h-103q-9 34 -9 63q-49 -69 -128 -69zM173 82q43 0 85 48v143q-134 -38 -134 -130
q0 -61 49 -61z" />
    <glyph glyph-name="b" unicode="b" horiz-adv-x="432" 
d="M258 -6q-64 0 -108 69v-63h-104v739h104v-267q45 66 114 66q142 0 142 -272q0 -141 -40 -206.5t-108 -65.5zM228 83q37 0 54.5 41.5t17.5 140.5q0 97 -18 138t-55 41q-40 0 -77 -49v-262q14 -20 35.5 -35t42.5 -15z" />
    <glyph glyph-name="c" unicode="c" horiz-adv-x="391" 
d="M205 -8q-83 0 -131.5 69.5t-48.5 203.5q0 136 50 204.5t133 68.5q73 0 110 -44.5t53 -129.5l-97 -16q-10 54 -24 77t-44 23q-38 0 -57 -42.5t-19 -140.5q0 -96 18 -141t59 -45q30 0 45.5 23.5t25.5 81.5l94 -15q-31 -177 -167 -177z" />
    <glyph glyph-name="d" unicode="d" horiz-adv-x="432" 
d="M169 -6q-143 0 -143 271q0 273 148 273q67 0 108 -64v266h104v-610q0 -94 12 -130h-108q-8 34 -8 60q-46 -66 -113 -66zM205 83q40 0 77 49v264q-37 48 -78 48q-37 0 -54.5 -40.5t-17.5 -137.5q0 -99 18 -141t55 -42z" />
    <glyph glyph-name="e" unicode="e" horiz-adv-x="401" 
d="M207 -8q-85 0 -133.5 68.5t-48.5 204.5q0 137 49 205t132 68q87 0 128 -74t41 -200v-37h-249q2 -148 84 -148q33 0 50.5 19.5t32.5 63.5l82 -27q-42 -143 -168 -143zM127 306h150q-3 144 -72 144q-73 0 -78 -144z" />
    <glyph glyph-name="f" unicode="f" horiz-adv-x="268" 
d="M74 0v445h-62v85h62v74q0 68 32 102.5t108 34.5q32 0 44 -2v-88q-3 1 -26 1q-54 0 -54 -55v-67h77v-85h-77v-445h-104z" />
    <glyph glyph-name="g" unicode="g" horiz-adv-x="421" 
d="M316 488q39 42 90 51v-102q-30 0 -56 -7q13 -41 13 -84q0 -90 -46 -139.5t-120 -49.5q-27 0 -54 8q-15 -17 -15 -31q0 -15 7.5 -21.5t31.5 -9.5l73 -10q83 -10 119 -43t36 -96q0 -71 -58 -114.5t-154 -43.5q-89 0 -134.5 33t-45.5 92q0 79 77 114q-42 23 -42 69
q0 49 54 88q-63 52 -63 154q0 88 47 140t121 52q75 0 119 -50zM197 234q67 0 67 111q0 112 -67 112t-67 -112q0 -111 67 -111zM140 19q-37 -33 -37 -78q0 -72 94 -72q48 0 74.5 19.5t26.5 53.5q0 30 -17.5 45.5t-63.5 21.5z" />
    <glyph glyph-name="h" unicode="h" horiz-adv-x="432" 
d="M46 0v740h104v-272q22 28 59 49t77 21q52 0 77.5 -30t25.5 -103v-405h-105v378q0 33 -10 48.5t-33 15.5q-39 0 -91 -50v-392h-104z" />
    <glyph glyph-name="i" unicode="i" horiz-adv-x="207" 
d="M50 611v108h106v-108h-106zM51 0v530h105v-530h-105z" />
    <glyph glyph-name="j" unicode="j" horiz-adv-x="207" 
d="M50 611v108h106v-108h-106zM33 -201q-34 0 -43 3v82q6 -2 24 -2q37 0 37 51v597h105v-595q0 -72 -28 -104t-95 -32z" />
    <glyph glyph-name="k" unicode="k" horiz-adv-x="397" 
d="M46 0v740h101v-464q7 20 49 107l74 147h100l-108 -197l123 -333h-105l-85 234l-48 -86v-148h-101z" />
    <glyph glyph-name="l" unicode="l" horiz-adv-x="207" 
d="M51 0v740h105v-740h-105z" />
    <glyph glyph-name="m" unicode="m" horiz-adv-x="657" 
d="M46 0v530h104v-62q23 29 58 49.5t73 20.5q80 0 97 -72q24 30 60.5 51t73.5 21q53 0 78 -31.5t25 -103.5v-403h-105v378q0 34 -9 49t-34 15q-35 0 -85 -50v-392h-104v378q0 34 -9 49t-33 15q-36 0 -86 -50v-392h-104z" />
    <glyph glyph-name="n" unicode="n" horiz-adv-x="432" 
d="M46 0v530h104v-62q22 28 59 49t77 21q52 0 77.5 -30t25.5 -103v-405h-105v378q0 33 -10 48.5t-33 15.5q-39 0 -91 -50v-392h-104z" />
    <glyph glyph-name="o" unicode="o" horiz-adv-x="419" 
d="M210 -8q-85 0 -135 69t-50 204q0 136 49.5 204.5t135.5 68.5q85 0 134 -68.5t49 -204.5q0 -135 -49 -204t-134 -69zM210 78q42 0 60 44.5t18 142.5q0 93 -17.5 138.5t-60.5 45.5q-42 0 -61 -44t-19 -140q0 -94 18 -140.5t62 -46.5z" />
    <glyph glyph-name="p" unicode="p" horiz-adv-x="432" 
d="M46 -200v730h104v-58q45 66 114 66q142 0 142 -272t-148 -272q-67 0 -108 64v-258h-104zM228 83q37 0 54.5 41.5t17.5 140.5q0 97 -18 138t-55 41q-40 0 -77 -49v-262q14 -20 35.5 -35t42.5 -15z" />
    <glyph glyph-name="q" unicode="q" horiz-adv-x="432" 
d="M281 -200l1 262q-47 -68 -113 -68q-143 0 -143 271q0 273 148 273q67 0 108 -64v56h104v-730h-105zM205 83q40 0 77 49v264q-39 50 -77 50t-55.5 -41t-17.5 -139q0 -99 18 -141t55 -42z" />
    <glyph glyph-name="r" unicode="r" horiz-adv-x="301" 
d="M46 0v530h104v-77h2q43 85 126 85h12l-3 -100h-19q-34 0 -67.5 -21.5t-50.5 -50.5v-366h-104z" />
    <glyph glyph-name="s" unicode="s" horiz-adv-x="377" 
d="M189 -10q-124 0 -179 130l82 37q34 -83 95 -83q32 0 49.5 15t17.5 42q0 26 -23 47.5t-55.5 39t-64.5 39t-55 57.5t-23 84q0 66 46.5 104t106.5 38q116 0 165 -122l-83 -36q-25 71 -80 71q-25 0 -40 -14t-15 -37q0 -28 23 -50t55.5 -40t64.5 -38.5t55 -56.5t23 -83
q0 -64 -44.5 -104t-120.5 -40z" />
    <glyph glyph-name="t" unicode="t" horiz-adv-x="292" 
d="M201 -4q-69 0 -99 26.5t-30 91.5v331h-61v85h61v186h104v-186h93v-85h-93v-299q0 -39 11.5 -53t42.5 -14q24 0 38 6v-83q-22 -6 -67 -6z" />
    <glyph glyph-name="u" unicode="u" horiz-adv-x="430" 
d="M145 -6q-52 0 -77 30t-25 103v403h104v-377q0 -34 10 -49.5t34 -15.5q37 0 89 50v392h104v-530h-104v64q-22 -28 -58.5 -49t-76.5 -21z" />
    <glyph glyph-name="v" unicode="v" horiz-adv-x="378" 
d="M133 -2l-124 532h102l57 -272q18 -96 25 -149h3q6 49 24 149l57 272h92l-125 -532h-111z" />
    <glyph glyph-name="w" unicode="w" horiz-adv-x="546" 
d="M114 -1l-105 531h98l45 -249q5 -29 17 -126h3q14 99 20 129l45 246h86l46 -248q3 -18 5.5 -36t6.5 -43.5t7 -48.5h3q5 40 18 125l45 251h83l-105 -531h-90l-67 369h-3l-68 -369h-90z" />
    <glyph glyph-name="x" unicode="x" horiz-adv-x="382" 
d="M10 0l129 275l-118 255h106l72 -168l67 168h95l-119 -253l129 -277h-106l-80 186l-79 -186h-96z" />
    <glyph glyph-name="y" unicode="y" horiz-adv-x="390" 
d="M80 -201q-47 0 -85 12l20 85q21 -7 52 -7q27 0 40.5 16t23.5 55l12 45l-135 525h107l58 -270q12 -61 23 -137h3q13 87 24 136l59 271h100l-154 -583q-20 -80 -52 -114t-96 -34z" />
    <glyph glyph-name="z" unicode="z" horiz-adv-x="361" 
d="M21 0v69l192 376h-175v85h293v-71l-193 -376h203v-83h-320z" />
    <glyph glyph-name="braceleft" unicode="{" horiz-adv-x="302" 
d="M219 -200q-123 0 -123 137v186q0 66 -16 86.5t-62 20.5v80q47 0 62.5 20.5t15.5 86.5v186q0 68 30.5 102.5t98.5 34.5h65v-82h-31q-30 0 -42.5 -17t-12.5 -54v-173q0 -69 -16.5 -98.5t-53.5 -44.5v-2q37 -15 53.5 -44.5t16.5 -98.5v-178q0 -36 13 -52t42 -16h31v-80h-71z
" />
    <glyph glyph-name="bar" unicode="|" horiz-adv-x="278" 
d="M86 -200v940h106v-940h-106z" />
    <glyph glyph-name="braceright" unicode="}" horiz-adv-x="302" 
d="M12 -200v79h30q29 0 42 16.5t13 52.5v178q0 69 16.5 98.5t54.5 44.5v2q-38 15 -54.5 44.5t-16.5 98.5v173q0 37 -12.5 54.5t-42.5 17.5h-30v81h65q69 0 99 -34.5t30 -102.5v-186q0 -66 15 -86.5t62 -20.5v-80q-46 0 -61.5 -20.5t-15.5 -86.5v-186q0 -137 -123 -137h-71z
" />
    <glyph glyph-name="asciitilde" unicode="~" horiz-adv-x="382" 
d="M250 389q-29 0 -66 28t-49 28q-28 0 -28 -54h-58q0 139 84 139q29 0 65.5 -28t49.5 -28q28 0 28 54h57q0 -139 -83 -139z" />
    <glyph glyph-name="nbspace" unicode="&#xa0;" horiz-adv-x="86" 
 />
    <glyph glyph-name="exclamdown" unicode="&#xa1;" horiz-adv-x="254" 
d="M67 622v118h119v-118h-119zM65 0l17 537h88l17 -537h-122z" />
    <glyph glyph-name="cent" unicode="&#xa2;" horiz-adv-x="391" 
d="M161 535v102h83v-99q55 -11 84 -54t43 -117l-97 -16q-10 55 -24 80t-44 25q-76 0 -76 -191q0 -193 77 -193q30 0 45.5 24.5t25.5 84.5l94 -15q-26 -151 -128 -173v-122h-83v124q-63 17 -99.5 86t-36.5 184q0 116 36.5 184t99.5 86z" />
    <glyph glyph-name="sterling" unicode="&#xa3;" horiz-adv-x="488" 
d="M165 343h-107v78h75q-39 97 -39 151q0 83 44.5 130t120.5 47q152 0 163 -196l-98 -8q-3 57 -17.5 86t-48.5 29q-62 0 -62 -86q0 -46 41 -153h129v-78h-100q23 -73 23 -132q0 -57 -16 -105q31 -28 57 -28q27 0 39 29.5t12 102.5h95q0 -111 -32 -165t-107 -54
q-51 0 -101 52q-44 -52 -117 -52q-49 0 -83 28t-34 79q0 53 31 85t82 32q40 0 80 -33q1 8 1 25q0 52 -31 136zM182 106q-37 40 -63 40q-17 0 -27.5 -12t-10.5 -33q0 -19 11 -30.5t28 -11.5q43 0 62 47z" />
    <glyph glyph-name="currency" unicode="&#xa4;" horiz-adv-x="495" 
d="M276 -9q-87 0 -137 61t-64 206h-65v78h60v35v30h-60v78h65q15 150 67.5 210t132.5 60q84 0 128 -53t57 -168l-96 -10q-9 74 -28 105.5t-59 31.5q-43 0 -67.5 -39t-30.5 -137h143v-78h-146q-1 -10 -1 -29q0 -24 1 -36h146v-78h-143q8 -102 31.5 -139t65.5 -37
q46 0 66 31.5t29 111.5l96 -9q-5 -49 -15.5 -86t-31.5 -70.5t-57 -51t-87 -17.5z" />
    <glyph glyph-name="yen" unicode="&#xa5;" horiz-adv-x="445" 
d="M168 0v96h-130v78h130v64h-130v78h120l-149 424h110l107 -334h2l106 334h103l-151 -424h120v-78h-129v-64h129v-78h-129v-96h-109z" />
    <glyph glyph-name="brokenbar" unicode="&#xa6;" horiz-adv-x="278" 
d="M86 331v409h106v-409h-106zM86 -200v409h106v-409h-106z" />
    <glyph glyph-name="section" unicode="&#xa7;" horiz-adv-x="431" 
d="M115 453q-54 61 -54 133q0 74 43 121.5t120 47.5q80 0 119 -46t51 -138l-95 -17q-8 57 -25.5 84t-50.5 27q-60 0 -60 -72q0 -27 16.5 -53t33 -40.5t55.5 -44.5q36 -28 53.5 -43t40.5 -41t32.5 -54.5t9.5 -63.5q0 -47 -24 -90t-65 -71q52 -59 52 -132q0 -74 -41.5 -121
t-117.5 -47q-81 0 -119 45.5t-49 137.5l95 17q8 -58 24.5 -84.5t49.5 -26.5q57 0 57 72q0 37 -22.5 65t-69.5 66q-76 58 -99 84q-48 54 -48 125q0 47 24 89.5t64 70.5zM249 152q55 39 55 89q0 36 -22 63t-74 69l-27 21q-53 -39 -53 -89q0 -37 22.5 -64.5t74.5 -69.5
q4 -3 12 -9.5t12 -9.5z" />
    <glyph glyph-name="dieresis" unicode="&#xa8;" horiz-adv-x="383" 
d="M220 583v107h93v-107h-93zM69 583v107h94v-107h-94z" />
    <glyph glyph-name="copyright" unicode="&#xa9;" horiz-adv-x="569" 
d="M284 -14q-115 0 -187 109.5t-72 273.5t73 274.5t187 110.5q115 0 187 -109.5t72 -273.5t-73 -274.5t-187 -110.5zM285 37q91 0 147 94.5t56 237.5t-56.5 238.5t-147.5 95.5q-90 0 -146.5 -95t-56.5 -237q0 -143 57 -238.5t147 -95.5zM286 158q-124 0 -124 217
q0 108 32 163t93 55q92 0 109 -141l-62 -8q-6 41 -16.5 61t-32.5 20q-56 0 -56 -150q0 -148 56 -148q42 0 52 85l63 -9q-10 -70 -37 -107.5t-77 -37.5z" />
    <glyph glyph-name="ordfeminine" unicode="&#xaa;" horiz-adv-x="315" 
d="M112 359q-36 0 -58 25.5t-22 72.5q0 56 41.5 96.5t121.5 60.5v25q0 46 -30 46q-39 0 -65 -46l-57 27q35 83 128 83q52 0 76.5 -26.5t24.5 -83.5v-179q0 -65 9 -93h-79q-6 25 -7 36q-37 -44 -83 -44zM139 425q27 0 56 31v103q-87 -26 -87 -93q0 -41 31 -41z" />
    <glyph glyph-name="guillemotleft" unicode="&#xab;" horiz-adv-x="409" 
d="M290 0l-99 264l99 263h97l-96 -263l96 -264h-97zM119 0l-98 264l98 263h98l-96 -263l96 -264h-98z" />
    <glyph glyph-name="registered" unicode="&#xae;" horiz-adv-x="569" 
d="M284 -14q-115 0 -187 109.5t-72 273.5t73 274.5t187 110.5q115 0 187 -109.5t72 -273.5t-73 -274.5t-187 -110.5zM285 33q90 0 147.5 96t57.5 240t-58 241t-148 97t-147.5 -96t-57.5 -240t58 -241t148 -97zM177 169v416h106q115 0 115 -129q0 -92 -54 -118l59 -169h-70
l-54 158h-33v-158h-69zM246 387h34q28 0 40 15.5t12 50.5t-12 50.5t-40 15.5h-34v-132z" />
    <glyph glyph-name="macron" unicode="&#xaf;" horiz-adv-x="377" 
d="M65 610v84h246v-84h-246z" />
    <glyph glyph-name="degree" unicode="&#xb0;" horiz-adv-x="284" 
d="M142 469q-50 0 -80 39.5t-30 101.5t30 101t80 39t79.5 -39t29.5 -101q0 -63 -29.5 -102t-79.5 -39zM142 527q43 0 43 83q0 85 -43 85t-43 -85q0 -83 43 -83z" />
    <glyph glyph-name="twosuperior" unicode="&#xb2;" horiz-adv-x="307" 
d="M29 285v17q0 56 17 98.5t41 68t48 47.5t41 50t17 63q0 51 -36 51q-20 0 -32 -15.5t-21 -58.5l-74 15q28 133 130 133q55 0 85 -32.5t30 -91.5q0 -39 -15.5 -72t-37.5 -56.5t-45 -45t-40 -47t-20 -52.5h159v-72h-247z" />
    <glyph glyph-name="threesuperior" unicode="&#xb3;" horiz-adv-x="310" 
d="M151 276q-55 0 -84.5 29.5t-45.5 91.5l71 19q18 -69 57 -69q47 0 47 67q0 46 -16 64.5t-61 18.5h-24v64h28q38 0 52.5 16.5t14.5 53.5q0 52 -38 52q-34 0 -52 -57l-67 22q31 106 123 106q113 0 113 -119q0 -78 -55 -105q62 -26 62 -116q0 -62 -33 -100t-92 -38z" />
    <glyph glyph-name="acute" unicode="&#xb4;" horiz-adv-x="377" 
d="M126 584l66 156h107l-99 -156h-74z" />
    <glyph glyph-name="mu" unicode="&#xb5;" horiz-adv-x="433" 
d="M46 -200v730h104v-384q0 -66 44 -66q37 0 89 50v400h104v-530h-104v64q-45 -54 -96 -61q-27 -4 -37 10v-213h-104z" />
    <glyph glyph-name="paragraph" unicode="&#xb6;" horiz-adv-x="490" 
d="M198 -200v536q-78 2 -123 53t-45 147q0 88 44 146t115 58h248v-940h-93v849h-54v-849h-92z" />
    <glyph glyph-name="periodcentered" unicode="&#xb7;" horiz-adv-x="280" 
d="M73 252v126h125v-126h-125z" />
    <glyph glyph-name="cedilla" unicode="&#xb8;" horiz-adv-x="377" 
d="M192 -198q-63 0 -112 34l23 42q41 -27 85 -27q42 0 42 36q0 29 -27 29q-18 0 -32 -17l-37 16l22 86h52l-11 -49q16 14 42 14t43.5 -17.5t17.5 -53.5q0 -43 -29 -68t-79 -25z" />
    <glyph glyph-name="onesuperior" unicode="&#xb9;" horiz-adv-x="286" 
d="M50 280v72h58v298q-26 -12 -57 -12v73q43 1 63 29h77v-388h52v-72h-193z" />
    <glyph glyph-name="ordmasculine" unicode="&#xba;" horiz-adv-x="317" 
d="M159 359q-61 0 -95.5 50.5t-34.5 144.5q0 95 34 145t96 50q61 0 95 -50t34 -145q0 -94 -34 -144.5t-95 -50.5zM159 426q50 0 50 128q0 127 -50 127q-52 0 -52 -127q0 -128 52 -128z" />
    <glyph glyph-name="guillemotright" unicode="&#xbb;" horiz-adv-x="409" 
d="M192 0l96 264l-96 263h98l97 -263l-97 -264h-98zM21 0l97 264l-97 263h98l99 -263l-99 -264h-98z" />
    <glyph glyph-name="onequarter" unicode="&#xbc;" horiz-adv-x="721" 
d="M50 280v72h58v298q-26 -12 -57 -12v73q43 1 63 29h77v-388h52v-72h-193zM175 0l309 740h91l-309 -740h-91zM569 0v101h-149v58l143 302h85v-290h49v-70h-49v-101h-79zM496 171h75v157h-3z" />
    <glyph glyph-name="onehalf" unicode="&#xbd;" horiz-adv-x="755" 
d="M50 280v72h58v298q-26 -12 -57 -12v73q43 1 63 29h77v-388h52v-72h-193zM175 0l309 740h91l-309 -740h-91zM471 0v18q0 56 17 98.5t41 67.5t48 47t41 50t17 63q0 51 -36 51q-20 0 -32 -15.5t-21 -58.5l-73 15q27 133 129 133q55 0 85 -32t30 -92q0 -39 -15.5 -72
t-37.5 -56.5t-45 -45t-40 -47t-20 -52.5h159v-72h-247z" />
    <glyph glyph-name="threequarters" unicode="&#xbe;" horiz-adv-x="733" 
d="M151 276q-55 0 -84.5 29.5t-45.5 91.5l71 19q18 -69 57 -69q47 0 47 67q0 46 -16 64.5t-61 18.5h-24v64h28q38 0 52.5 16.5t14.5 53.5q0 52 -38 52q-34 0 -52 -57l-67 22q31 106 123 106q113 0 113 -119q0 -78 -55 -105q62 -26 62 -116q0 -62 -33 -100t-92 -38zM187 0
l309 740h91l-309 -740h-91zM581 0v101h-149v58l143 302h85v-290h49v-70h-49v-101h-79zM508 171h75v157h-3z" />
    <glyph glyph-name="questiondown" unicode="&#xbf;" horiz-adv-x="400" 
d="M159 622v118h119v-118h-119zM192 -9q-81 0 -124 46t-43 126q0 51 21.5 93.5t60.5 89.5q43 54 53 86t10 106h94q2 -85 -12.5 -124t-60.5 -101q-22 -29 -32.5 -46t-20 -43.5t-9.5 -53.5q0 -85 69 -85q34 0 54 25t35 73l95 -21q-43 -171 -190 -171z" />
    <glyph glyph-name="Agrave" unicode="&#xc0;" horiz-adv-x="471" 
d="M148 186l-38 -186h-96l168 743h107l168 -743h-107l-38 186h-164zM294 272l-22 108q-32 162 -40 227h-3q-7 -59 -40 -225l-23 -110h128zM210 787l-99 156h107l66 -156h-74z" />
    <glyph glyph-name="Aacute" unicode="&#xc1;" horiz-adv-x="471" 
d="M148 186l-38 -186h-96l168 743h107l168 -743h-107l-38 186h-164zM294 272l-22 108q-32 162 -40 227h-3q-7 -59 -40 -225l-23 -110h128zM193 787l66 156h107l-99 -156h-74z" />
    <glyph glyph-name="Acircumflex" unicode="&#xc2;" horiz-adv-x="471" 
d="M148 186l-38 -186h-96l168 743h107l168 -743h-107l-38 186h-164zM294 272l-22 108q-32 162 -40 227h-3q-7 -59 -40 -225l-23 -110h128zM109 784l91 159h71l89 -159h-63l-63 75l-61 -75h-64z" />
    <glyph glyph-name="Atilde" unicode="&#xc3;" horiz-adv-x="471" 
d="M148 186l-38 -186h-96l168 743h107l168 -743h-107l-38 186h-164zM294 272l-22 108q-32 162 -40 227h-3q-7 -59 -40 -225l-23 -110h128zM295 776q-29 0 -66 28t-49 28q-28 0 -28 -54h-58q0 139 84 139q29 0 65.5 -28t49.5 -28q28 0 28 54h57q0 -139 -83 -139z" />
    <glyph glyph-name="Adieresis" unicode="&#xc4;" horiz-adv-x="471" 
d="M148 186l-38 -186h-96l168 743h107l168 -743h-107l-38 186h-164zM294 272l-22 108q-32 162 -40 227h-3q-7 -59 -40 -225l-23 -110h128zM264 786v107h93v-107h-93zM113 786v107h94v-107h-94z" />
    <glyph glyph-name="Aring" unicode="&#xc5;" horiz-adv-x="471" 
d="M150 193l-40 -193h-96l163 716q-29 31 -29 83q0 46 23.5 76.5t63.5 30.5q39 0 63 -30.5t24 -76.5q0 -51 -28 -82l163 -717h-107l-40 193h-160zM235 742q30 0 30 56q0 54 -30 54t-30 -54q0 -56 30 -56zM294 272l-22 108q-32 162 -40 227h-3q-7 -59 -40 -225l-23 -110h128z
" />
    <glyph glyph-name="AE" unicode="&#xc6;" horiz-adv-x="680" 
d="M7 0l254 740h383v-97h-214v-208h153v-92h-153v-249h225v-94h-333v196h-140l-68 -196h-107zM214 286h108v339h-2z" />
    <glyph glyph-name="Ccedilla" unicode="&#xc7;" horiz-adv-x="480" 
d="M209 -4q-178 34 -178 374q0 379 221 379q96 0 142.5 -64t56.5 -191l-104 -11q-9 89 -30.5 127.5t-64.5 38.5q-58 0 -84.5 -68t-26.5 -210q0 -145 26.5 -214t85.5 -69q46 0 68.5 39t33.5 134l104 -10q-16 -120 -61.5 -188t-136.5 -71l-8 -35q16 14 42 14t43.5 -17.5
t17.5 -53.5q0 -43 -29 -68t-79 -25q-63 0 -112 34l23 42q41 -27 85 -27q42 0 42 36q0 29 -27 29q-18 0 -32 -17l-37 16z" />
    <glyph glyph-name="Egrave" unicode="&#xc8;" horiz-adv-x="413" 
d="M54 0v740h324v-97h-214v-207h153v-92h-153v-250h225v-94h-335zM186 787l-99 156h107l66 -156h-74z" />
    <glyph glyph-name="Eacute" unicode="&#xc9;" horiz-adv-x="413" 
d="M54 0v740h324v-97h-214v-207h153v-92h-153v-250h225v-94h-335zM144 787l66 156h107l-99 -156h-74z" />
    <glyph glyph-name="Ecircumflex" unicode="&#xca;" horiz-adv-x="413" 
d="M54 0v740h324v-97h-214v-207h153v-92h-153v-250h225v-94h-335zM80 784l91 159h71l89 -159h-63l-63 75l-61 -75h-64z" />
    <glyph glyph-name="Edieresis" unicode="&#xcb;" horiz-adv-x="413" 
d="M54 0v740h324v-97h-214v-207h153v-92h-153v-250h225v-94h-335zM235 786v107h93v-107h-93zM84 786v107h94v-107h-94z" />
    <glyph glyph-name="Igrave" unicode="&#xcc;" horiz-adv-x="228" 
d="M59 0v740h110v-740h-110zM78 787l-99 156h107l66 -156h-74z" />
    <glyph glyph-name="Iacute" unicode="&#xcd;" horiz-adv-x="228" 
d="M59 0v740h110v-740h-110zM75 787l66 156h107l-99 -156h-74z" />
    <glyph glyph-name="Icircumflex" unicode="&#xce;" horiz-adv-x="228" 
d="M59 0v740h110v-740h-110zM-12 784l91 159h71l89 -159h-63l-63 75l-61 -75h-64z" />
    <glyph glyph-name="Idieresis" unicode="&#xcf;" horiz-adv-x="228" 
d="M59 0v740h110v-740h-110zM142 786v107h93v-107h-93zM-9 786v107h94v-107h-94z" />
    <glyph glyph-name="Eth" unicode="&#xd0;" horiz-adv-x="499" 
d="M54 0v345h-46v90h46v305h146q90 0 147 -32t89 -114.5t32 -222.5q0 -105 -17.5 -178t-53.5 -115t-83.5 -60t-113.5 -18h-146zM164 93h50q80 0 111.5 63.5t31.5 214.5q0 149 -31.5 211t-112.5 62h-49v-209h85v-90h-85v-252z" />
    <glyph glyph-name="Ntilde" unicode="&#xd1;" horiz-adv-x="512" 
d="M54 0v740h118l143 -371q35 -92 52 -146h2v517h88v-740h-94l-167 420q-35 88 -51 141h-3v-561h-88zM316 776q-29 0 -66 28t-49 28q-28 0 -28 -54h-58q0 139 84 139q29 0 65.5 -28t49.5 -28q28 0 28 54h57q0 -139 -83 -139z" />
    <glyph glyph-name="Ograve" unicode="&#xd2;" 
d="M258 -9q-107 0 -167 93.5t-60 285.5t60 285.5t167 93.5q106 0 166 -93.5t60 -285.5t-60 -285.5t-166 -93.5zM258 88q114 0 114 282q0 279 -114 279q-117 0 -117 -279q0 -282 117 -282zM236 787l-99 156h107l66 -156h-74z" />
    <glyph glyph-name="Oacute" unicode="&#xd3;" 
d="M258 -9q-107 0 -167 93.5t-60 285.5t60 285.5t167 93.5q106 0 166 -93.5t60 -285.5t-60 -285.5t-166 -93.5zM258 88q114 0 114 282q0 279 -114 279q-117 0 -117 -279q0 -282 117 -282zM194 787l66 156h107l-99 -156h-74z" />
    <glyph glyph-name="Ocircumflex" unicode="&#xd4;" 
d="M258 -9q-107 0 -167 93.5t-60 285.5t60 285.5t167 93.5q106 0 166 -93.5t60 -285.5t-60 -285.5t-166 -93.5zM258 88q114 0 114 282q0 279 -114 279q-117 0 -117 -279q0 -282 117 -282zM130 784l91 159h71l89 -159h-63l-63 75l-61 -75h-64z" />
    <glyph glyph-name="Otilde" unicode="&#xd5;" 
d="M258 -9q-107 0 -167 93.5t-60 285.5t60 285.5t167 93.5q106 0 166 -93.5t60 -285.5t-60 -285.5t-166 -93.5zM258 88q114 0 114 282q0 279 -114 279q-117 0 -117 -279q0 -282 117 -282zM316 776q-29 0 -66 28t-49 28q-28 0 -28 -54h-58q0 139 84 139q29 0 65.5 -28
t49.5 -28q28 0 28 54h57q0 -139 -83 -139z" />
    <glyph glyph-name="Odieresis" unicode="&#xd6;" 
d="M258 -9q-107 0 -167 93.5t-60 285.5t60 285.5t167 93.5q106 0 166 -93.5t60 -285.5t-60 -285.5t-166 -93.5zM258 88q114 0 114 282q0 279 -114 279q-117 0 -117 -279q0 -282 117 -282zM285 786v107h93v-107h-93zM134 786v107h94v-107h-94z" />
    <glyph glyph-name="multiply" unicode="&#xd7;" horiz-adv-x="465" 
d="M294 329l131 -131l-60 -60l-131 131l-132 -132l-60 60l132 132l-132 131l61 60l131 -131l130 131l60 -61z" />
    <glyph glyph-name="Oslash" unicode="&#xd8;" 
d="M437 631q47 -97 47 -261q0 -192 -60 -285.5t-166 -93.5q-83 0 -136 54l-49 -91l-64 33l67 124q-45 95 -45 259q0 192 60 285.5t167 93.5q80 0 133 -52l49 89l63 -33zM147 234l193 358q-28 58 -82 58q-120 0 -120 -280q0 -79 9 -136zM366 505l-194 -357q30 -61 86 -61
q117 0 117 283q0 80 -9 135z" />
    <glyph glyph-name="Ugrave" unicode="&#xd9;" horiz-adv-x="494" 
d="M248 -8q-106 0 -152 61.5t-46 179.5v507h108v-495q0 -82 20 -120.5t72 -38.5q51 0 71 38t20 119v497h103v-505q0 -121 -45 -182t-151 -61zM228 787l-99 156h107l66 -156h-74z" />
    <glyph glyph-name="Uacute" unicode="&#xda;" horiz-adv-x="494" 
d="M248 -8q-106 0 -152 61.5t-46 179.5v507h108v-495q0 -82 20 -120.5t72 -38.5q51 0 71 38t20 119v497h103v-505q0 -121 -45 -182t-151 -61zM186 787l66 156h107l-99 -156h-74z" />
    <glyph glyph-name="Ucircumflex" unicode="&#xdb;" horiz-adv-x="494" 
d="M248 -8q-106 0 -152 61.5t-46 179.5v507h108v-495q0 -82 20 -120.5t72 -38.5q51 0 71 38t20 119v497h103v-505q0 -121 -45 -182t-151 -61zM122 784l91 159h71l89 -159h-63l-63 75l-61 -75h-64z" />
    <glyph glyph-name="Udieresis" unicode="&#xdc;" horiz-adv-x="494" 
d="M248 -8q-106 0 -152 61.5t-46 179.5v507h108v-495q0 -82 20 -120.5t72 -38.5q51 0 71 38t20 119v497h103v-505q0 -121 -45 -182t-151 -61zM277 786v107h93v-107h-93zM126 786v107h94v-107h-94z" />
    <glyph glyph-name="Yacute" unicode="&#xdd;" horiz-adv-x="440" 
d="M165 0v276l-161 464h111l108 -342h3l107 342h103l-162 -464v-276h-109zM158 787l66 156h107l-99 -156h-74z" />
    <glyph glyph-name="Thorn" unicode="&#xde;" horiz-adv-x="462" 
d="M54 0v740h111v-116h67q209 0 209 -227q0 -71 -17.5 -119.5t-49.5 -72.5t-66.5 -33t-79.5 -9h-63v-163h-111zM165 256h66q52 0 75.5 30.5t23.5 108.5q0 74 -23.5 103.5t-76.5 29.5h-65v-272z" />
    <glyph glyph-name="germandbls" unicode="&#xdf;" horiz-adv-x="459" 
d="M269 -5q-52 0 -99 20l33 83q27 -12 57 -12q79 0 79 124q0 73 -32 109.5t-99 46.5v76q92 12 92 118q0 92 -70 92q-74 0 -74 -118v-534h-105v531q0 102 47 155.5t136 53.5q82 0 123.5 -45t41.5 -125q0 -55 -26 -97t-70 -60q61 -18 99 -69t38 -136q0 -105 -46.5 -159
t-124.5 -54z" />
    <glyph glyph-name="agrave" unicode="&#xe0;" horiz-adv-x="404" 
d="M130 -6q-50 0 -78.5 34t-28.5 101q0 79 62 137.5t173 85.5v29q0 34 -11.5 50.5t-39.5 16.5q-49 0 -115 -61l-57 67q84 84 188 84q73 0 104.5 -37.5t31.5 -115.5v-255q0 -93 11 -130h-103q-9 34 -9 63q-49 -69 -128 -69zM173 82q43 0 85 48v143q-134 -38 -134 -130
q0 -61 49 -61zM181 584l-99 156h107l66 -156h-74z" />
    <glyph glyph-name="aacute" unicode="&#xe1;" horiz-adv-x="404" 
d="M130 -6q-50 0 -78.5 34t-28.5 101q0 79 62 137.5t173 85.5v29q0 34 -11.5 50.5t-39.5 16.5q-49 0 -115 -61l-57 67q84 84 188 84q73 0 104.5 -37.5t31.5 -115.5v-255q0 -93 11 -130h-103q-9 34 -9 63q-49 -69 -128 -69zM173 82q43 0 85 48v143q-134 -38 -134 -130
q0 -61 49 -61zM139 584l66 156h107l-99 -156h-74z" />
    <glyph glyph-name="acircumflex" unicode="&#xe2;" horiz-adv-x="404" 
d="M130 -6q-50 0 -78.5 34t-28.5 101q0 79 62 137.5t173 85.5v29q0 34 -11.5 50.5t-39.5 16.5q-49 0 -115 -61l-57 67q84 84 188 84q73 0 104.5 -37.5t31.5 -115.5v-255q0 -93 11 -130h-103q-9 34 -9 63q-49 -69 -128 -69zM173 82q43 0 85 48v143q-134 -38 -134 -130
q0 -61 49 -61zM76 581l91 159h71l89 -159h-63l-63 75l-61 -75h-64z" />
    <glyph glyph-name="atilde" unicode="&#xe3;" horiz-adv-x="404" 
d="M130 -6q-50 0 -78.5 34t-28.5 101q0 79 62 137.5t173 85.5v29q0 34 -11.5 50.5t-39.5 16.5q-49 0 -115 -61l-57 67q84 84 188 84q73 0 104.5 -37.5t31.5 -115.5v-255q0 -93 11 -130h-103q-9 34 -9 63q-49 -69 -128 -69zM173 82q43 0 85 48v143q-134 -38 -134 -130
q0 -61 49 -61zM261 573q-29 0 -66 28t-49 28q-28 0 -28 -54h-58q0 139 84 139q29 0 65.5 -28t49.5 -28q28 0 28 54h57q0 -139 -83 -139z" />
    <glyph glyph-name="adieresis" unicode="&#xe4;" horiz-adv-x="404" 
d="M130 -6q-50 0 -78.5 34t-28.5 101q0 79 62 137.5t173 85.5v29q0 34 -11.5 50.5t-39.5 16.5q-49 0 -115 -61l-57 67q84 84 188 84q73 0 104.5 -37.5t31.5 -115.5v-255q0 -93 11 -130h-103q-9 34 -9 63q-49 -69 -128 -69zM173 82q43 0 85 48v143q-134 -38 -134 -130
q0 -61 49 -61zM231 583v107h93v-107h-93zM80 583v107h94v-107h-94z" />
    <glyph glyph-name="aring" unicode="&#xe5;" horiz-adv-x="404" 
d="M130 -6q-50 0 -78.5 34t-28.5 101q0 79 62 137.5t173 85.5v29q0 34 -11.5 50.5t-39.5 16.5q-49 0 -115 -61l-57 67q84 84 188 84q73 0 104.5 -37.5t31.5 -115.5v-255q0 -93 11 -130h-103q-9 34 -9 63q-49 -69 -128 -69zM173 82q43 0 85 48v143q-134 -38 -134 -130
q0 -61 49 -61zM201 564q-39 0 -62.5 31t-23.5 77t23.5 76.5t62.5 30.5q40 0 64 -30.5t24 -76.5t-24 -77t-64 -31zM201 615q31 0 31 56q0 54 -31 54q-29 0 -29 -54q0 -56 29 -56z" />
    <glyph glyph-name="ae" unicode="&#xe6;" horiz-adv-x="631" 
d="M291 86q-70 -92 -161 -92q-50 0 -78.5 34t-28.5 101q0 79 62 137.5t173 85.5v31q0 34 -11.5 49.5t-39.5 15.5q-49 0 -115 -61l-57 67q84 84 189 84q73 0 99 -52q46 52 112 52q88 0 129 -74t41 -200v-37h-249q2 -148 84 -148q33 0 50.5 19.5t32.5 63.5l82 -27
q-42 -143 -168 -143q-100 0 -146 94zM357 306h150q-3 144 -72 144q-73 0 -78 -144zM258 273q-134 -37 -134 -130q0 -61 49 -61q46 0 99 59q-14 56 -14 124v8z" />
    <glyph glyph-name="ccedilla" unicode="&#xe7;" horiz-adv-x="391" 
d="M161 -2q-64 17 -100 84.5t-36 182.5q0 136 50 204.5t133 68.5q73 0 110 -44.5t53 -129.5l-97 -16q-10 54 -24 77t-44 23q-38 0 -57 -42.5t-19 -140.5q0 -96 18 -141t59 -45q30 0 45.5 23.5t25.5 81.5l94 -15q-31 -173 -160 -177l-8 -37q16 14 42 14t43.5 -17.5
t17.5 -53.5q0 -43 -29 -68t-79 -25q-63 0 -112 34l23 42q40 -27 85 -27q42 0 42 36q0 29 -27 29q-18 0 -32 -17l-37 16z" />
    <glyph glyph-name="egrave" unicode="&#xe8;" horiz-adv-x="401" 
d="M207 -8q-85 0 -133.5 68.5t-48.5 204.5q0 137 49 205t132 68q87 0 128 -74t41 -200v-37h-249q2 -148 84 -148q33 0 50.5 19.5t32.5 63.5l82 -27q-42 -143 -168 -143zM127 306h150q-3 144 -72 144q-73 0 -78 -144zM180 584l-99 156h107l66 -156h-74z" />
    <glyph glyph-name="eacute" unicode="&#xe9;" horiz-adv-x="401" 
d="M207 -8q-85 0 -133.5 68.5t-48.5 204.5q0 137 49 205t132 68q87 0 128 -74t41 -200v-37h-249q2 -148 84 -148q33 0 50.5 19.5t32.5 63.5l82 -27q-42 -143 -168 -143zM127 306h150q-3 144 -72 144q-73 0 -78 -144zM138 584l66 156h107l-99 -156h-74z" />
    <glyph glyph-name="ecircumflex" unicode="&#xea;" horiz-adv-x="401" 
d="M207 -8q-85 0 -133.5 68.5t-48.5 204.5q0 137 49 205t132 68q87 0 128 -74t41 -200v-37h-249q2 -148 84 -148q33 0 50.5 19.5t32.5 63.5l82 -27q-42 -143 -168 -143zM127 306h150q-3 144 -72 144q-73 0 -78 -144zM74 581l91 159h71l89 -159h-63l-63 75l-61 -75h-64z" />
    <glyph glyph-name="edieresis" unicode="&#xeb;" horiz-adv-x="401" 
d="M207 -8q-85 0 -133.5 68.5t-48.5 204.5q0 137 49 205t132 68q87 0 128 -74t41 -200v-37h-249q2 -148 84 -148q33 0 50.5 19.5t32.5 63.5l82 -27q-42 -143 -168 -143zM127 306h150q-3 144 -72 144q-73 0 -78 -144zM229 583v107h93v-107h-93zM78 583v107h94v-107h-94z" />
    <glyph glyph-name="igrave" unicode="&#xec;" horiz-adv-x="207" 
d="M51 0v530h105v-530h-105zM65 584l-99 156h107l66 -156h-74z" />
    <glyph glyph-name="iacute" unicode="&#xed;" horiz-adv-x="207" 
d="M51 0v530h105v-530h-105zM67 584l66 156h107l-99 -156h-74z" />
    <glyph glyph-name="icircumflex" unicode="&#xee;" horiz-adv-x="207" 
d="M51 0v530h105v-530h-105zM-23 581l91 159h71l89 -159h-63l-63 75l-61 -75h-64z" />
    <glyph glyph-name="idieresis" unicode="&#xef;" horiz-adv-x="207" 
d="M51 0v530h105v-530h-105zM131 583v107h93v-107h-93zM-20 583v107h94v-107h-94z" />
    <glyph glyph-name="eth" unicode="&#xf0;" horiz-adv-x="418" 
d="M259 578l-71 -39l-33 62l64 36q-23 28 -56 58l55 59q48 -41 76 -75l76 43l33 -63l-68 -38q32 -55 45 -128.5t13 -187.5q0 -316 -183 -316q-89 0 -137 70.5t-48 197.5q0 129 45.5 199.5t126.5 70.5q36 0 65 -21t44 -57q-13 68 -47 129zM209 75q79 0 79 183q0 185 -79 185
t-79 -185q0 -91 18 -137t61 -46z" />
    <glyph glyph-name="ntilde" unicode="&#xf1;" horiz-adv-x="432" 
d="M46 0v530h104v-62q22 28 59 49t77 21q52 0 77.5 -30t25.5 -103v-405h-105v378q0 33 -10 48.5t-33 15.5q-39 0 -91 -50v-392h-104zM275 573q-29 0 -66 28t-49 28q-28 0 -28 -54h-58q0 139 84 139q29 0 65.5 -28t49.5 -28q28 0 28 54h57q0 -139 -83 -139z" />
    <glyph glyph-name="ograve" unicode="&#xf2;" horiz-adv-x="419" 
d="M210 -8q-85 0 -135 69t-50 204q0 136 49.5 204.5t135.5 68.5q85 0 134 -68.5t49 -204.5q0 -135 -49 -204t-134 -69zM210 78q42 0 60 44.5t18 142.5q0 93 -17.5 138.5t-60.5 45.5q-42 0 -61 -44t-19 -140q0 -94 18 -140.5t62 -46.5zM189 584l-99 156h107l66 -156h-74z" />
    <glyph glyph-name="oacute" unicode="&#xf3;" horiz-adv-x="419" 
d="M210 -8q-85 0 -135 69t-50 204q0 136 49.5 204.5t135.5 68.5q85 0 134 -68.5t49 -204.5q0 -135 -49 -204t-134 -69zM210 78q42 0 60 44.5t18 142.5q0 93 -17.5 138.5t-60.5 45.5q-42 0 -61 -44t-19 -140q0 -94 18 -140.5t62 -46.5zM147 584l66 156h107l-99 -156h-74z" />
    <glyph glyph-name="ocircumflex" unicode="&#xf4;" horiz-adv-x="419" 
d="M210 -8q-85 0 -135 69t-50 204q0 136 49.5 204.5t135.5 68.5q85 0 134 -68.5t49 -204.5q0 -135 -49 -204t-134 -69zM210 78q42 0 60 44.5t18 142.5q0 93 -17.5 138.5t-60.5 45.5q-42 0 -61 -44t-19 -140q0 -94 18 -140.5t62 -46.5zM83 581l91 159h71l89 -159h-63l-63 75
l-61 -75h-64z" />
    <glyph glyph-name="otilde" unicode="&#xf5;" horiz-adv-x="419" 
d="M210 -8q-85 0 -135 69t-50 204q0 136 49.5 204.5t135.5 68.5q85 0 134 -68.5t49 -204.5q0 -135 -49 -204t-134 -69zM210 78q42 0 60 44.5t18 142.5q0 93 -17.5 138.5t-60.5 45.5q-42 0 -61 -44t-19 -140q0 -94 18 -140.5t62 -46.5zM269 573q-29 0 -66 28t-49 28
q-28 0 -28 -54h-58q0 139 84 139q29 0 65.5 -28t49.5 -28q28 0 28 54h57q0 -139 -83 -139z" />
    <glyph glyph-name="odieresis" unicode="&#xf6;" horiz-adv-x="419" 
d="M210 -8q-85 0 -135 69t-50 204q0 136 49.5 204.5t135.5 68.5q85 0 134 -68.5t49 -204.5q0 -135 -49 -204t-134 -69zM210 78q42 0 60 44.5t18 142.5q0 93 -17.5 138.5t-60.5 45.5q-42 0 -61 -44t-19 -140q0 -94 18 -140.5t62 -46.5zM238 583v107h93v-107h-93zM87 583v107
h94v-107h-94z" />
    <glyph glyph-name="divide" unicode="&#xf7;" horiz-adv-x="465" 
d="M185 454v110h94v-110h-94zM39 284v92h387v-92h-387zM185 95v109h94v-109h-94z" />
    <glyph glyph-name="oslash" unicode="&#xf8;" horiz-adv-x="419" 
d="M348 463q45 -70 45 -198q0 -135 -49 -204t-134 -69q-49 0 -87 23l-29 -58l-66 31l41 81q-44 71 -44 196q0 136 49.5 204.5t135.5 68.5q48 0 85 -22l30 59l65 -31zM132 179l124 250q-18 21 -46 21q-84 0 -84 -185q0 -49 6 -86zM286 351l-126 -250q19 -24 50 -24
q82 0 82 188q0 49 -6 86z" />
    <glyph glyph-name="ugrave" unicode="&#xf9;" horiz-adv-x="430" 
d="M145 -6q-52 0 -77 30t-25 103v403h104v-377q0 -34 10 -49.5t34 -15.5q37 0 89 50v392h104v-530h-104v64q-22 -28 -58.5 -49t-76.5 -21zM195 584l-99 156h107l66 -156h-74z" />
    <glyph glyph-name="uacute" unicode="&#xfa;" horiz-adv-x="430" 
d="M145 -6q-52 0 -77 30t-25 103v403h104v-377q0 -34 10 -49.5t34 -15.5q37 0 89 50v392h104v-530h-104v64q-22 -28 -58.5 -49t-76.5 -21zM153 584l66 156h107l-99 -156h-74z" />
    <glyph glyph-name="ucircumflex" unicode="&#xfb;" horiz-adv-x="430" 
d="M145 -6q-52 0 -77 30t-25 103v403h104v-377q0 -34 10 -49.5t34 -15.5q37 0 89 50v392h104v-530h-104v64q-22 -28 -58.5 -49t-76.5 -21zM89 581l91 159h71l89 -159h-63l-63 75l-61 -75h-64z" />
    <glyph glyph-name="udieresis" unicode="&#xfc;" horiz-adv-x="430" 
d="M145 -6q-52 0 -77 30t-25 103v403h104v-377q0 -34 10 -49.5t34 -15.5q37 0 89 50v392h104v-530h-104v64q-22 -28 -58.5 -49t-76.5 -21zM244 583v107h93v-107h-93zM93 583v107h94v-107h-94z" />
    <glyph glyph-name="yacute" unicode="&#xfd;" horiz-adv-x="390" 
d="M80 -201q-47 0 -85 12l20 85q21 -7 52 -7q27 0 40.5 16t23.5 55l12 45l-135 525h107l58 -270q12 -61 23 -137h3q13 87 24 136l59 271h100l-154 -583q-20 -80 -52 -114t-96 -34zM132 584l66 156h107l-99 -156h-74z" />
    <glyph glyph-name="thorn" unicode="&#xfe;" horiz-adv-x="432" 
d="M46 -200v940h104v-265q45 66 114 66q142 0 142 -275q0 -142 -39.5 -208.5t-108.5 -66.5q-67 0 -108 64v-255h-104zM228 80q37 0 54.5 42.5t17.5 142.5q0 97 -18 139.5t-55 42.5q-40 0 -77 -49v-268q14 -20 35.5 -35t42.5 -15z" />
    <glyph glyph-name="ydieresis" unicode="&#xff;" horiz-adv-x="390" 
d="M80 -201q-47 0 -85 12l20 85q21 -7 52 -7q27 0 40.5 16t23.5 55l12 45l-135 525h107l58 -270q12 -61 23 -137h3q13 87 24 136l59 271h100l-154 -583q-20 -80 -52 -114t-96 -34zM223 583v107h93v-107h-93zM72 583v107h94v-107h-94z" />
    <glyph glyph-name="dotlessi" unicode="&#x131;" horiz-adv-x="207" 
d="M51 0v530h105v-530h-105z" />
    <glyph glyph-name="Lslash" unicode="&#x141;" horiz-adv-x="398" 
d="M57 0v328l-49 -18v93l49 18v319h111v-280l82 29v-93l-82 -29v-272h215v-95h-326z" />
    <glyph glyph-name="lslash" unicode="&#x142;" horiz-adv-x="240" 
d="M67 0v324l-48 -17v86l48 17v330h107v-295l47 16v-86l-47 -16v-359h-107z" />
    <glyph glyph-name="OE" unicode="&#x152;" horiz-adv-x="733" 
d="M394 665v75h304v-97h-214v-208h153v-92h-153v-249h225v-94h-315v75q-47 -84 -136 -84q-107 0 -167 93.5t-60 285.5t60 285.5t167 93.5q89 0 136 -84zM258 88q114 0 114 282q0 279 -114 279q-117 0 -117 -279q0 -282 117 -282z" />
    <glyph glyph-name="oe" unicode="&#x153;" horiz-adv-x="661" 
d="M210 -8q-85 0 -135 69t-50 204q0 136 49.5 204.5t135.5 68.5q83 0 128 -70q44 70 128 70q87 0 128 -74t41 -200v-37h-249q2 -148 84 -148q33 0 50.5 19.5t32.5 63.5l82 -27q-42 -143 -168 -143q-86 0 -129 70q-45 -70 -128 -70zM387 306h150q-3 144 -72 144
q-73 0 -78 -144zM210 78q42 0 60 44.5t18 142.5q0 93 -17.5 138.5t-60.5 45.5q-42 0 -61 -44t-19 -140q0 -94 18 -140.5t62 -46.5z" />
    <glyph glyph-name="Scaron" unicode="&#x160;" horiz-adv-x="457" 
d="M233 -11q-174 0 -214 211l100 19q13 -68 40.5 -101.5t74.5 -33.5q42 0 63 23t21 62q0 32 -20.5 64t-50.5 58t-66 57.5t-66 62t-50.5 73t-20.5 89.5q0 82 50.5 130t133.5 48q80 0 124.5 -49t66.5 -143l-97 -25q-16 62 -38 91t-60 29q-35 0 -54 -19t-19 -55q0 -40 28 -78.5
t68.5 -71t81 -68t68.5 -84t28 -104.5q0 -82 -53 -133.5t-139 -51.5zM195 785l-90 159h64l62 -76l62 76h63l-90 -159h-71z" />
    <glyph glyph-name="scaron" unicode="&#x161;" horiz-adv-x="377" 
d="M189 -10q-124 0 -179 130l82 37q34 -83 95 -83q32 0 49.5 15t17.5 42q0 26 -23 47.5t-55.5 39t-64.5 39t-55 57.5t-23 84q0 66 46.5 104t106.5 38q116 0 165 -122l-83 -36q-25 71 -80 71q-25 0 -40 -14t-15 -37q0 -28 23 -50t55.5 -40t64.5 -38.5t55 -56.5t23 -83
q0 -64 -44.5 -104t-120.5 -40zM154 582l-90 159h64l62 -76l62 76h63l-90 -159h-71z" />
    <glyph glyph-name="Ydieresis" unicode="&#x178;" horiz-adv-x="440" 
d="M165 0v276l-161 464h111l108 -342h3l107 342h103l-162 -464v-276h-109zM249 786v107h93v-107h-93zM98 786v107h94v-107h-94z" />
    <glyph glyph-name="Zcaron" unicode="&#x17d;" horiz-adv-x="431" 
d="M20 0v83l264 560h-244v97h365v-86l-264 -560h264v-94h-385zM179 785l-90 159h64l62 -76l62 76h63l-90 -159h-71z" />
    <glyph glyph-name="zcaron" unicode="&#x17e;" horiz-adv-x="361" 
d="M21 0v69l192 376h-175v85h293v-71l-193 -376h203v-83h-320zM144 582l-90 159h64l62 -76l62 76h63l-90 -159h-71z" />
    <glyph glyph-name="florin" unicode="&#x192;" horiz-adv-x="300" 
d="M-24 -201q-33 0 -48 3l12 85q12 -3 29 -3q28 0 42 13.5t18 45.5l53 392h-62l11 83h62l27 188q10 73 47 104.5t111 31.5q18 0 45 -3l-13 -86q-16 2 -30 2q-51 0 -58 -56l-25 -181h77l-11 -83h-77l-56 -406q-10 -71 -45.5 -100.5t-108.5 -29.5z" />
    <glyph glyph-name="circumflex" unicode="&#x2c6;" horiz-adv-x="389" 
d="M68 581l91 159h71l89 -159h-63l-63 75l-61 -75h-64z" />
    <glyph glyph-name="caron" unicode="&#x2c7;" horiz-adv-x="389" 
d="M158 582l-90 159h64l62 -76l62 76h63l-90 -159h-71z" />
    <glyph glyph-name="breve" unicode="&#x2d8;" horiz-adv-x="377" 
d="M189 579q-59 0 -87.5 42t-32.5 123h66q4 -50 16.5 -72.5t37.5 -22.5q24 0 36.5 22.5t17.5 72.5h64q-6 -165 -118 -165z" />
    <glyph glyph-name="dotaccent" unicode="&#x2d9;" horiz-adv-x="377" 
d="M119 586v105h112v-105h-112z" />
    <glyph glyph-name="ring" unicode="&#x2da;" horiz-adv-x="384" 
d="M191 564q-39 0 -62.5 31t-23.5 77t23.5 76.5t62.5 30.5q40 0 64 -30.5t24 -76.5t-24 -77t-64 -31zM191 615q31 0 31 56q0 54 -31 54q-29 0 -29 -54q0 -56 29 -56z" />
    <glyph glyph-name="ogonek" unicode="&#x2db;" horiz-adv-x="377" 
d="M182 -192q-42 0 -63 21t-21 57q0 32 18 62.5t45 51.5h51q-45 -39 -45 -94q0 -44 36 -44q29 0 61 25l28 -31q-53 -48 -110 -48z" />
    <glyph glyph-name="tilde" unicode="&#x2dc;" horiz-adv-x="382" 
d="M250 573q-29 0 -66 28t-49 28q-28 0 -28 -54h-58q0 139 84 139q29 0 65.5 -28t49.5 -28q28 0 28 54h57q0 -139 -83 -139z" />
    <glyph glyph-name="hungarumlaut" unicode="&#x2dd;" horiz-adv-x="383" 
d="M177 584l69 156h110l-104 -156h-75zM35 584l67 156h110l-101 -156h-76z" />
    <glyph glyph-name="endash" unicode="&#x2013;" horiz-adv-x="455" 
d="M36 265v92h383v-92h-383z" />
    <glyph glyph-name="emdash" unicode="&#x2014;" horiz-adv-x="590" 
d="M36 265v92h518v-92h-518z" />
    <glyph glyph-name="quoteleft" unicode="&#x2018;" horiz-adv-x="219" 
d="M51 492v119l57 129h50l-36 -122h46v-126h-117z" />
    <glyph glyph-name="quoteright" unicode="&#x2019;" horiz-adv-x="219" 
d="M62 492l36 122h-48v126h118v-118l-56 -130h-50z" />
    <glyph glyph-name="quotesinglbase" unicode="&#x201a;" horiz-adv-x="219" 
d="M62 -122l36 122h-48v126h118v-118l-56 -130h-50z" />
    <glyph glyph-name="quotedblleft" unicode="&#x201c;" horiz-adv-x="391" 
d="M224 492v119l56 129h49l-36 -122h47v-126h-116zM51 492v119l56 129h49l-36 -122h46v-126h-115z" />
    <glyph glyph-name="quotedblright" unicode="&#x201d;" horiz-adv-x="390" 
d="M235 492l35 122h-46v126h116v-118l-56 -130h-49zM62 492l35 122h-47v126h117v-118l-56 -130h-49z" />
    <glyph glyph-name="quotedblbase" unicode="&#x201e;" horiz-adv-x="390" 
d="M235 -122l35 122h-46v126h116v-118l-56 -130h-49zM62 -122l35 122h-47v126h117v-118l-56 -130h-49z" />
    <glyph glyph-name="dagger" unicode="&#x2020;" horiz-adv-x="422" 
d="M156 -200l16 601l-144 -10v97l144 -12l-16 264h109l-15 -264l143 12v-97l-143 10l15 -601h-109z" />
    <glyph glyph-name="daggerdbl" unicode="&#x2021;" horiz-adv-x="420" 
d="M156 -200l15 225l-137 -12v95l137 -11l-13 175l13 171l-137 -10v95l137 -12l-15 224h109l-16 -224l138 12v-95l-138 10l13 -171l-13 -175l138 11v-95l-138 12l16 -225h-109z" />
    <glyph glyph-name="bullet" unicode="&#x2022;" horiz-adv-x="463" 
d="M231 232q-51 0 -84.5 33.5t-33.5 84.5q0 52 33.5 85.5t84.5 33.5q52 0 85.5 -33.5t33.5 -85.5q0 -51 -33.5 -84.5t-85.5 -33.5z" />
    <glyph glyph-name="ellipsis" unicode="&#x2026;" horiz-adv-x="674" 
d="M502 0v126h120v-126h-120zM277 0v126h120v-126h-120zM51 0v126h121v-126h-121z" />
    <glyph glyph-name="perthousand" unicode="&#x2030;" horiz-adv-x="1061" 
d="M169 314q-139 0 -139 216q0 103 34.5 161t105.5 58q137 0 137 -217q0 -100 -33 -159t-105 -59zM174 0l310 740h90l-309 -740h-91zM891 -8q-138 0 -138 215q0 104 34.5 162t104.5 58q138 0 138 -216q0 -100 -33.5 -159.5t-105.5 -59.5zM579 -8q-138 0 -138 215
q0 220 138 220t138 -216q0 -100 -33.5 -159.5t-104.5 -59.5zM169 388q26 0 36.5 35.5t10.5 107.5q0 74 -10.5 108t-37.5 34q-26 0 -36.5 -34.5t-10.5 -105.5q0 -75 10.5 -110t37.5 -35zM892 66q26 0 36.5 35.5t10.5 107.5q0 75 -10.5 108.5t-37.5 33.5q-26 0 -36.5 -34.5
t-10.5 -105.5q0 -75 10.5 -110t37.5 -35zM579 66q48 0 48 143q0 75 -11 108.5t-38 33.5q-26 0 -36.5 -34.5t-10.5 -105.5q0 -75 10.5 -110t37.5 -35z" />
    <glyph glyph-name="guilsinglleft" unicode="&#x2039;" horiz-adv-x="239" 
d="M115 0l-99 264l99 263h98l-97 -263l97 -264h-98z" />
    <glyph glyph-name="guilsinglright" unicode="&#x203a;" horiz-adv-x="239" 
d="M26 0l96 264l-96 263h98l99 -263l-99 -264h-98z" />
    <glyph glyph-name="fraction" unicode="&#x2044;" horiz-adv-x="356" 
d="M-10 0l275 740h101l-275 -740h-101z" />
    <glyph glyph-name="Euro" unicode="&#x20ac;" horiz-adv-x="495" 
d="M276 -9q-87 0 -137 61t-64 206h-65v78h60v35v30h-60v78h65q15 150 67.5 210t132.5 60q84 0 128 -53t57 -168l-96 -10q-9 74 -28 105.5t-59 31.5q-43 0 -67.5 -39t-30.5 -137h143v-78h-146q-1 -10 -1 -29q0 -24 1 -36h146v-78h-143q8 -102 31.5 -139t65.5 -37
q46 0 66 31.5t29 111.5l96 -9q-5 -49 -15.5 -86t-31.5 -70.5t-57 -51t-87 -17.5z" />
    <glyph glyph-name="recordright" unicode="&#x2117;" horiz-adv-x="569" 
d="M284 -14q-115 0 -187 109.5t-72 273.5t73 274.5t187 110.5q115 0 187 -109.5t72 -273.5t-73 -274.5t-187 -110.5zM285 37q91 0 147 94.5t56 237.5t-56.5 238.5t-147.5 95.5q-90 0 -146.5 -95t-56.5 -237q0 -143 57 -238.5t147 -95.5zM188 164v416h104q115 0 115 -128
q0 -131 -118 -131h-33v-157h-68zM256 384h35q26 0 38 14.5t12 51.5q0 35 -12 49.5t-38 14.5h-35v-130z" />
    <glyph glyph-name="trademark" unicode="&#x2122;" horiz-adv-x="632" 
d="M282 308v432h92l63 -312l64 312h91v-432h-69v282l-58 -282h-60l-58 282v-282h-65zM97 308v359h-79v73h230v-73h-78v-359h-73z" />
    <glyph glyph-name="minus" unicode="&#x2212;" horiz-adv-x="465" 
d="M39 284v92h387v-92h-387z" />
    <glyph glyph-name="radical" unicode="&#x221a;" horiz-adv-x="433" 
d="M133 -2l-124 532h104q79 -376 81 -396h2l131 605h97l-173 -741h-118z" />
    <glyph glyph-name="registered.alt" unicode="&#xe000;" horiz-adv-x="382" 
d="M191 291q-69 0 -113 66t-44 165t44.5 166t113.5 67t112.5 -66t43.5 -165t-44 -166t-113 -67zM192 322q53 0 87 57.5t34 142.5q0 86 -34 144t-88 58t-88 -57t-34 -143t34.5 -144t88.5 -58zM126 401v252h64q71 0 71 -78q0 -54 -32 -73l36 -101h-46l-33 94h-17v-94h-43z
M169 535h19q17 0 24 8.5t7 29.5q0 38 -31 38h-19v-76z" />
    <glyph glyph-name="fl" unicode="&#xfb02;" horiz-adv-x="460" 
d="M74 0v445h-62v85h62v74q0 137 132 137q26 0 40 -2v-87h-21q-47 0 -47 -55v-67h65v-85h-65v-445h-104zM300 0v739h105v-739h-105z" />
    </font>
</defs>
</svg>
